<?xml version="1.0" standalone="no"?>
<!DOCTYPE svg PUBLIC "-//W3C//DTD SVG 1.1//EN" "http://www.w3.org/Graphics/SVG/1.1/DTD/svg11.dtd">
<svg xmlns="http://www.w3.org/2000/svg">
<metadata>Generated by Fontastic.me</metadata>
<defs>
<font id="transport" horiz-adv-x="512">
<font-face font-family="transport" units-per-em="512" ascent="480" descent="-32"/>
<missing-glyph horiz-adv-x="512" />

<glyph unicode="&#97;" d="M454 52l-396 0c-32 0-58 23-58 52l0 115c0 29 26 52 58 52l396 0c32 0 58-23 58-52l0-115c0-29-26-52-58-52z m-396 198c-20 0-37-14-37-31l0-115c0-17 17-31 37-31l396 0c20 0 37 14 37 31l0 115c0 17-17 31-37 31l-396 0z m-37-82l-21 0 0 292c0 29 26 52 58 52l396 0c32 0 58-23 58-52l0-292-21 0 0 292c0 17-17 31-37 31l-396 0c-20 0-37-14-37-31z m44 82c-1 0-2 0-3 0-5 1-9 7-8 13l25 110c5 25 32 46 60 46l234 0c28 0 54-20 60-46l25-110c1-6-3-12-8-13-6-1-12 3-13 8l-25 110c-3 16-21 30-39 30l-234 0c-18 0-36-14-39-30l-25-110c-1-5-5-8-10-8z m82-88c0 24-20 44-45 44-25 0-46-20-46-44 0-25 21-45 46-45 25 0 45 20 45 45z m309 0c0 24-21 44-46 44-25 0-45-20-45-44 0-25 20-45 45-45 25 0 46 20 46 45z m-150-11l-100 0c-6 0-11 5-11 11 0 5 5 10 11 10l100 0c6 0 11-5 11-10 0-6-5-11-11-11z m-242-151c-6 0-11 5-11 11l0 44c0 6 5 10 11 10 6 0 10-4 10-10l0-44c0-6-4-11-10-11z m384 0c-6 0-11 5-11 11l0 44c0 6 5 10 11 10 6 0 11-4 11-10l0-44c0-6-5-11-11-11z m-154 359l-76 0c-6 0-11 5-11 10 0 6 5 11 11 11l76 0c6 0 11-5 11-11 0-5-5-10-11-10z"/>
<glyph unicode="&#98;" d="M415 109c-54 0-97 43-97 97 0 53 43 97 97 97 53 0 97-44 97-97 0-54-44-97-97-97z m0 173c-42 0-76-34-76-76 0-42 34-76 76-76 42 0 76 34 76 76 0 42-34 76-76 76z m-318-173c-53 0-97 43-97 97 0 53 44 97 97 97 54 0 97-44 97-97 0-54-43-97-97-97z m0 173c-42 0-76-34-76-76 0-42 34-76 76-76 42 0 76 34 76 76 0 42-34 76-76 76z m0-87c-2 0-4 1-6 2-5 4-6 10-2 15l86 118c4 5 10 6 15 3 5-4 6-10 2-15l-86-119c-2-2-6-4-9-4z m156-9c0 0 0 0 0 0-4 0-7 2-9 5l-85 167c-3 6-1 12 4 15 5 2 12 0 15-5l77-151 75 113c3 5 10 6 15 3 5-3 6-10 3-15l-86-128c-2-3-5-4-9-4z m162 9c-3 0-6 1-8 3-84 89-82 191-82 195 0 6 5 10 11 10 0 0 0 0 0 0 6 0 11-5 10-10 0-1-1-98 77-180 4-4 3-11-1-15-2-2-5-3-7-3z m-73 132l-158 0c-6 0-11 5-11 11 0 6 5 10 11 10l158 0c6 0 11-4 11-10 0-6-5-11-11-11z m-146 35l-67 0c-6 0-11 5-11 11 0 5 5 10 11 10l67 0c6 0 11-5 11-10 0-6-5-11-11-11z m167 20l-60 0c-5 0-10 5-10 11 0 6 5 10 10 10l60 0c6 0 11-4 11-10 0-6-5-11-11-11z"/>
<glyph unicode="&#99;" d="M222 87l-31 0c-37 0-66 29-66 65l0 151c0 65 54 119 122 119l18 0c68 0 122-54 122-119l0-151c0-36-29-65-66-65l-29 0c-6 0-10 4-10 10 0 6 4 11 10 11l29 0c25 0 45 20 45 44l0 151c0 53-45 97-101 97l-18 0c-56 0-101-44-101-97l0-151c0-25 20-44 45-44l31 0c6 0 11-5 11-11 0-6-5-10-11-10z m34-87c-25 0-44 21-44 47l0 93c0 25 19 46 44 46 25 0 45-21 45-46l0-93c0-26-20-47-45-47z m0 165c-13 0-23-11-23-25l0-93c0-14 10-26 23-26 13 0 23 12 23 26l0 93c0 14-10 25-23 25z m0 241c-30 0-54 24-54 53 0 29 24 53 54 53 30 0 54-24 54-53 0-29-24-53-54-53z m0 85c-18 0-32-14-32-32 0-17 14-31 32-31 18 0 33 14 33 31 0 18-15 32-33 32z m-43-42l-106 0c-6 0-11 4-11 10 0 6 5 11 11 11l106 0c6 0 11-5 11-11 0-6-5-10-11-10z m192 0l-106 0c-6 0-10 4-10 10 0 6 4 11 10 11l106 0c6 0 11-5 11-11 0-6-5-10-11-10z"/>
<glyph unicode="&#100;" d="M454 87l-396 0c-32 0-58 24-58 53l0 117c0 29 26 53 58 53l396 0c32 0 58-24 58-53l0-117c0-29-26-53-58-53z m-396 202c-20 0-37-15-37-32l0-117c0-17 17-32 37-32l396 0c20 0 37 15 37 32l0 117c0 17-17 32-37 32z m-12 0c-1 0-2 0-3 0-5 1-9 7-8 12l27 135c6 30 35 55 65 55l258 0c30 0 59-25 65-55l27-135c1-5-3-11-8-12-6-1-12 2-13 8l-27 135c-4 20-24 37-44 37l-258 0c-20 0-40-17-44-37l-27-135c-1-5-5-8-10-8z m101-90c0-26-20-46-45-46-25 0-46 20-46 46 0 25 21 45 46 45 25 0 45-20 45-45z m309 0c0-26-21-46-46-46-25 0-45 20-45 46 0 25 20 45 45 45 25 0 46-20 46-45z m-150-11l-100 0c-6 0-11 5-11 11 0 5 5 10 11 10l100 0c6 0 11-5 11-10 0-6-5-11-11-11z m-242-166c-6 0-11 4-11 10l0 58c0 6 5 11 11 11 6 0 10-5 10-11l0-58c0-6-4-10-10-10z m384 0c-6 0-11 4-11 10l0 58c0 6 5 11 11 11 6 0 11-5 11-11l0-58c0-6-5-10-11-10z m-154 399l-76 0c-6 0-11 5-11 11 0 6 5 11 11 11l76 0c6 0 11-5 11-11 0-6-5-11-11-11z"/>
<glyph unicode="&#101;" d="M173 161c0 21-15 37-34 37-20 0-35-16-35-37 0-20 15-36 35-36 19 0 34 16 34 36z m235 0c0 21-15 37-35 37-19 0-34-16-34-37 0-20 15-36 34-36 20 0 35 16 35 36z m-119-10l-66 0c-6 0-11 5-11 11 0 5 5 10 11 10l66 0c6 0 11-5 11-10 0-6-5-11-11-11z m-176-151c-6 0-11 5-11 11l0 44c0 6 5 10 11 10 5 0 10-4 10-10l0-44c0-6-5-11-10-11z m286 0c-5 0-10 5-10 11l0 44c0 6 5 10 10 10 6 0 11-4 11-10l0-44c0-6-5-11-11-11z m1 56l-288 0c-35 0-64 34-64 76l0 304c0 20 7 39 18 53 12 15 28 23 46 23l288 0c35 0 64-34 64-76l0-304c0-42-29-76-64-76z m-288 435c-11 0-21-6-29-16-9-10-13-24-13-39l0-304c0-30 19-55 42-55l288 0c23 0 42 25 42 55l0 304c0 30-19 55-42 55z m331-246l-374 0c-6 0-11 4-11 10 0 6 5 11 11 11l374 0c6 0 11-5 11-11 0-6-5-10-11-10z m-187 0c-6 0-11 4-11 10l0 246c0 6 5 11 11 11 6 0 11-5 11-11l0-246c0-6-5-10-11-10z m-245 69c-6 0-11 5-11 11l0 108c0 6 5 11 11 11 6 0 10-5 10-11l0-108c0-6-4-11-10-11z m490 0c-6 0-10 5-10 11l0 108c0 6 4 11 10 11 6 0 11-5 11-11l0-108c0-6-5-11-11-11z"/>
<glyph unicode="&#102;" d="M281 0l-50 0c-12 0-21 10-21 21l0 318c0 11 9 21 21 21l50 0c12 0 21-10 21-21l0-318c0-11-9-21-21-21z m0 21l0-10z m-50 318l0-318 50 0 0 318z m188 152l-326 0c-6 0-11 4-11 10 0 6 5 11 11 11l326 0c6 0 11-5 11-11 0-6-5-10-11-10z m-163-138c-6 0-11 5-11 11l0 137c0 6 5 11 11 11 6 0 11-5 11-11l0-137c0-6-5-11-11-11z m118-93l-50 0c-6 0-10 5-10 11 0 5 4 10 10 10l50 0c6 0 10-5 10-10 0-6-4-11-10-11z m-189-146l-49 0c-6 0-11 5-11 10 0 6 5 11 11 11l49 0c6 0 11-5 11-11 0-5-5-10-11-10z"/>
<glyph unicode="&#103;" d="M256 61c-18 0-79 2-95 23-2 2-3 4-3 7l0 196c1 8 17 174 92 223 2 2 5 2 8 2 1 0 3-1 4-2 75-48 91-215 91-222l1-197c0-3-1-5-3-7-16-21-77-23-95-23z m-76 34c8-6 34-13 76-13 42 0 68 7 76 13l0 192c0 0-15 153-76 201-61-48-76-201-76-202z m-82-95c-2 0-3 0-4 1-4 1-7 5-7 10l0 247c0 3 1 6 3 8l63 56c5 4 12 3 16-1 3-4 3-11-1-15l-60-53 0-214 53 59c4 4 11 5 15 1 5-4 5-11 1-15l-72-80c-2-3-4-4-7-4z m316 0c-2 0-5 1-7 4l-72 80c-4 4-4 11 1 15 4 4 11 3 15-1l53-59 0 214-60 53c-4 4-4 11-1 15 4 4 11 5 16 1l63-56c2-2 3-5 3-8l0-247c0-5-3-9-7-10-1-1-2-1-4-1z m-158 322c-6 0-11 5-11 11l0 49c0 6 5 11 11 11 6 0 11-5 11-11l0-49c0-6-5-11-11-11z m4-54c-52 0-92 16-95 17-5 2-8 8-6 13 2 6 9 8 14 6 1 0 86-33 166 0 5 3 11 0 14-5 2-6-1-12-6-14-30-13-60-17-87-17z"/>
<glyph unicode="&#104;" d="M453 85c-5 0-9 3-10 7-2 6 1 12 7 13 3 1 6 2 9 4 19 9 32 28 32 49l0 278c0 30-25 55-55 55l-360 0c-30 0-55-25-55-55l0-278c0-23 15-44 38-52 6-1 9-7 7-13-2-6-8-9-14-7-31 11-52 40-52 72l0 278c0 42 34 76 76 76l360 0c42 0 76-34 76-76l0-278c0-29-17-56-44-68-4-2-8-4-12-5-1 0-2 0-3 0z m-276 58c0 18-15 33-33 33-19 0-34-15-34-33 0-18 15-32 34-32 18 0 33 14 33 32z m224 0c0 18-14 33-33 33-18 0-33-15-33-33 0-18 15-32 33-32 19 0 33 14 33 32z m-113-10l-64 0c-6 0-10 4-10 10 0 6 4 11 10 11l64 0c6 0 10-5 10-11 0-6-4-10-10-10z m-169-133c-6 0-11 5-11 11l0 38c0 6 5 11 11 11 6 0 10-5 10-11l0-38c0-6-4-11-10-11z m274 0c-6 0-10 5-10 11l0 38c0 6 4 11 10 11 6 0 11-5 11-11l0-38c0-6-5-11-11-11z m1 49l-276 0c-34 0-61 31-61 68l0 267c0 38 27 69 61 69l276 0c34 0 61-31 61-69l0-267c0-37-27-68-61-68z m-276 382c-22 0-40-21-40-47l0-267c0-26 18-47 40-47l276 0c22 0 40 21 40 47l0 267c0 26-18 47-40 47z m317-216l-358 0c-6 0-11 5-11 11 0 6 5 10 11 10l358 0c6 0 11-4 11-10 0-6-5-11-11-11z m-179 0c-6 0-11 5-11 11l0 207c0 6 5 11 11 11 6 0 11-5 11-11l0-207c0-6-5-11-11-11z"/>
<glyph unicode="&#105;" d="M177 156c0-17-15-32-34-32-18 0-33 15-33 32 0 18 15 32 33 32 19 0 34-14 34-32z m225 0c0 18-15 32-33 32-19 0-34-14-34-32 0-17 15-32 34-32 18 0 33 15 33 32z m-114-10l-64 0c-6 0-10 5-10 10 0 6 4 11 10 11l64 0c6 0 10-5 10-11 0-5-4-10-10-10z m-277 140c-6 0-11 5-11 11l0 62c0 6 5 11 11 11 6 0 10-5 10-11l0-62c0-6-4-11-10-11z m490 0c-6 0-10 5-10 11l0 62c0 6 4 11 10 11 6 0 11-5 11-11l0-62c0-6-5-11-11-11z m-383-286c-6 0-10 5-10 11l0 38c0 6 4 11 10 11 6 0 11-5 11-11l0-38c0-6-5-11-11-11z m276 0c-6 0-11 5-11 11l0 38c0 6 5 11 11 11 6 0 10-5 10-11l0-38c0-6-4-11-10-11z m-26 59l-224 0c-55 0-100 53-100 118l0 108c0 125 85 227 190 227l44 0c51 0 99-24 135-67 36-43 55-100 55-160l0-108c0-65-45-118-100-118z m-134 432c-93 0-169-93-169-206l0-108c0-53 36-97 79-97l224 0c43 0 79 44 79 97l0 108c0 55-18 107-50 146-32 38-75 60-119 60z m219-249l-392 0c-6 0-11 5-11 11 0 6 5 11 11 11l392 0c6 0 10-5 10-11 0-6-4-11-10-11z"/>
<glyph unicode="&#106;" d="M393 271l-274 0c-4 0-8 2-10 6-11 22-17 46-17 71 0 91 74 164 164 164 90 0 164-73 164-164 0-25-6-49-17-72-2-3-6-5-10-5z m-267 21l260 0c8 18 12 37 12 56 0 79-64 143-142 143-78 0-142-64-142-143 0-19 4-38 12-56z m191-292l-122 0c-6 0-10 5-10 11l0 100c0 6 4 11 10 11l122 0c6 0 10-5 10-11l0-100c0-6-4-11-10-11z m-111 21l100 0 0 80-100 0z m-4 80c-4 0-8 2-10 6l-77 162c-2 5 0 11 6 14 5 2 11 0 14-5l76-162c3-5 0-12-5-14-1-1-3-1-4-1z m108 0c-1 0-3 0-4 1-5 2-8 9-5 14l76 162c3 5 9 7 14 5 6-3 8-9 6-14l-77-162c-2-4-6-6-10-6z m-54 8c-6 0-11 4-11 10l0 154c0 6 5 11 11 11 6 0 11-5 11-11l0-154c0-6-5-10-11-10z"/>
<glyph unicode="&#107;" d="M82 117l-10 0c-25 0-45 20-45 45l0 46c0 25 20 45 45 45l152 0c0 3-1 7-1 10l0 62c0 25 20 45 45 45l66 0c23 0 47-17 55-40l21-65c1-4 2-8 2-12l55 0c25 0 45-20 45-45l0-46c0-25-20-45-45-45l-17 0c-5 0-10 5-10 11 0 6 5 10 10 10l17 0c13 0 24 11 24 24l0 46c0 13-11 23-24 23l-68 0c-3 0-7 2-9 5-2 3-2 7 0 11 1 3 1 7 0 11l-22 66c-4 13-20 25-34 25l-66 0c-13 0-24-11-24-24l0-62c0-6 3-11 6-14 2-4 3-8 1-12-2-3-6-6-10-6l-169 0c-13 0-24-10-24-23l0-46c0-13 11-24 24-24l10 0c6 0 11-4 11-10 0-6-5-11-11-11z m248 0l-127 0c-6 0-11 5-11 11 0 6 5 10 11 10l127 0c6 0 10-4 10-10 0-6-4-11-10-11z m-188-62c-39 0-71 32-71 71 0 39 32 71 71 71 40 0 71-32 71-71 0-39-31-71-71-71z m0 120c-27 0-49-22-49-49 0-28 22-50 49-50 28 0 50 22 50 50 0 27-22 49-50 49z m248-120c-39 0-71 32-71 71 0 39 32 71 71 71 39 0 71-32 71-71 0-39-32-71-71-71z m0 120c-27 0-50-22-50-49 0-28 23-50 50-50 27 0 50 22 50 50 0 27-23 49-50 49z m-209 58c-3 0-6 2-9 4l-143 203c-2 4-3 8-1 11 2 4 6 6 10 6l50 0c3 0 6-1 8-3l145-143c4-5 5-11 0-16-4-4-11-4-15 0l-142 141-26 0 132-186c3-5 2-12-3-15-2-1-4-2-6-2z m-143 43c-23 0-38 14-38 35 0 6 5 11 11 11 6 0 10-5 10-11 0-10 5-14 17-14 11 0 13 10 13 18 0 12-16 17-16 17-5 1-8 5-8 10l0 97c0 6 5 11 11 11 6 0 10-5 10-11l0-90c12-5 24-15 24-34 0-19-10-39-34-39z"/>
<glyph unicode="&#108;" d="M362 67l-212 0c-15 0-29 7-40 18-11 11-17 27-16 43l8 205c2 33 29 60 61 60l186 0c32 0 59-27 61-60l8-205c1-16-5-32-16-43-11-11-25-18-40-18z m-199 305c-21 0-39-18-39-39l-9-206c0-10 3-20 10-28 7-6 16-10 25-10l212 0c9 0 18 4 25 10 7 8 10 18 10 28l-9 206c0 21-18 39-39 39z m163-179l-140 0c-18 0-32 15-32 33l0 79c0 18 14 33 32 33l140 0c18 0 32-15 32-33l0-79c0-9-3-17-9-23-6-7-14-10-23-10z m-140 123c-6 0-11-5-11-11l0-80c0-6 5-11 11-11l140 0c6 0 11 5 11 11l0 80c0 6-5 11-11 11z m-110-316c-3 0-6 1-8 4-4 4-3 11 1 15l79 67c5 4 12 4 15-1 4-4 4-11-1-15l-79-67c-2-2-5-3-7-3z m360 0c-2 0-5 1-7 3l-79 67c-5 4-5 11-1 15 3 5 10 5 15 1l79-67c4-4 5-11 1-15-2-3-5-4-8-4z m-15 13l-330 0c-6 0-11 4-11 10 0 6 5 11 11 11l330 0c6 0 11-5 11-11 0-6-5-10-11-10z m20 57c-3 0-5 1-7 3-5 4-5 10-1 15 37 44 58 101 58 160 0 134-106 243-235 243-129 0-235-109-235-243 0-59 21-115 58-159 4-5 3-12-1-15-5-4-12-4-15 1-41 48-63 109-63 173 0 146 115 264 256 264 141 0 256-118 256-264 0-64-22-126-63-174-2-2-5-4-8-4z"/>
<glyph unicode="&#109;" d="M256 57c-92 0-155 225-155 300 0 85 69 155 155 155 86 0 155-70 155-155 0-75-63-300-155-300z m0 434c-74 0-134-60-134-134 0-78 64-278 134-278 70 0 134 200 134 278 0 74-60 134-134 134z m84-217l-168 0c-12 0-22 10-22 21l0 90c0 11 10 21 22 21l168 0c12 0 22-10 22-21l0-90c0-11-10-21-22-21z m0 21l0-10z m-168 90l0-90 168 0 0 90z m-142-385c-3 0-5 1-7 2-5 4-5 11-2 15l127 160c4 5 11 5 15 2 5-4 6-11 2-15l-127-160c-2-3-5-4-8-4z m452 0c-3 0-6 1-8 4l-127 160c-4 4-3 11 2 15 4 3 11 3 15-2l127-160c3-4 3-11-2-15-2-1-4-2-7-2z m-37 33l-378 0c-6 0-10 5-10 11 0 6 4 11 10 11l378 0c6 0 10-5 10-11 0-6-4-11-10-11z"/>
<glyph unicode="&#110;" d="M474 158l-8 0c-6 0-11 5-11 11 0 6 5 11 11 11l8 0c9 0 17 7 17 16l0 110c0 10-8 17-17 17l-82 0c-10 0-17-7-17-17l0-110c0-9 7-16 15-16 6 0 10-5 10-11 0-6-4-11-10-11-20 0-36 17-36 38l0 110c0 21 17 38 38 38l82 0c21 0 38-17 38-38l0-110c0-21-17-38-38-38z m-137 0l-118 0c-6 0-11 5-11 11 0 6 5 11 11 11l118 0c9 0 17 7 17 16l0 158c0 9-8 16-17 16l-299 0c-9 0-17-7-17-16l0-158c0-9 8-16 17-16l19 0c6 0 11-5 11-11 0-6-5-11-11-11l-19 0c-21 0-38 17-38 38l0 158c0 21 17 38 38 38l299 0c21 0 38-17 38-38l0-158c0-21-17-38-38-38z m91-38c-27 0-49 22-49 49 0 27 22 49 49 49 26 0 48-22 48-49 0-27-22-49-48-49z m0 76c-15 0-28-12-28-27 0-15 13-27 28-27 15 0 27 12 27 27 0 15-12 27-27 27z m-332-76c-27 0-48 22-48 49 0 27 21 49 48 49 27 0 49-22 49-49 0-27-22-49-49-49z m0 76c-15 0-27-12-27-27 0-15 12-27 27-27 15 0 27 12 27 27 0 15-12 27-27 27z m85-76c-27 0-49 22-49 49 0 27 22 49 49 49 27 0 48-22 48-49 0-27-21-49-48-49z m0 76c-15 0-28-12-28-27 0-15 13-27 28-27 15 0 27 12 27 27 0 15-12 27-27 27z m315 46l-83 0c-6 0-11 5-11 11l0 81c0 6 5 10 11 10 6 0 11-4 11-10l0-70 72 0c6 0 11-5 11-11 0-6-5-11-11-11z"/>
<glyph unicode="&#111;" d="M348 135l-180 0c-6 0-11 5-11 11 0 6 5 10 11 10l180 0c6 0 10-4 10-10 0-6-4-11-10-11z m153 0l-60 0c-6 0-11 5-11 11 0 6 5 10 11 10l48 0-15 103-116 0c-4 0-8 3-10 7l-37 107c-22 9-134 48-290 13l0-230 46 0c6 0 11-4 11-10 0-6-5-11-11-11l-56 0c-6 0-11 5-11 11l0 248c0 5 3 9 8 10 186 46 311-11 316-13 2-1 4-4 5-6l37-104 118 0c5 0 9-4 10-10l18-124c0-3-1-6-3-8-2-3-5-4-8-4z m-147 124l-134 0c-6 0-11 5-11 11l0 136c0 6 5 10 11 10 6 0 11-4 11-10l0-125 123 0c5 0 10-5 10-11 0-6-5-11-10-11z m-233-169c-30 0-55 25-55 55 0 30 25 55 55 55 31 0 55-25 55-55 0-30-24-55-55-55z m0 89c-18 0-33-15-33-34 0-18 15-33 33-33 19 0 34 15 34 33 0 19-15 34-34 34z m271-89c-30 0-55 25-55 55 0 30 25 55 55 55 30 0 55-25 55-55 0-30-25-55-55-55z m0 89c-19 0-34-15-34-34 0-18 15-33 34-33 19 0 34 15 34 33 0 19-15 34-34 34z"/>
<glyph unicode="&#112;" d="M400 89l-288 0c-20 0-39 8-53 23-14 14-21 33-20 54l11 270c2 42 37 76 79 76l254 0c42 0 77-34 79-76l11-270c1-21-6-40-20-54-14-15-33-23-53-23z m-271 402c-30 0-56-25-57-55l-12-271c-1-15 4-28 14-39 10-10 23-16 38-16l288 0c15 0 28 6 38 16 10 11 15 24 14 39l-12 271c-1 30-27 55-57 55z m236-247l-218 0c-24 0-43 19-43 43l0 119c0 24 19 44 43 44l218 0c24 0 43-20 43-44l0-119c0-24-19-43-43-43z m-218 184c-12 0-22-9-22-22l0-119c0-12 10-22 22-22l218 0c12 0 22 10 22 22l0 119c0 13-10 22-22 22z m-136-428c-3 0-6 1-9 4-3 4-3 11 2 15l108 89c5 4 11 3 15-2 4-4 3-11-1-15l-109-89c-2-1-4-2-6-2z m490 0c-2 0-4 1-6 2l-109 89c-4 4-5 11-1 15 4 5 10 6 15 2l108-89c5-4 5-11 2-15-3-3-6-4-9-4z m-20 17l-450 0c-6 0-11 4-11 10 0 6 5 11 11 11l450 0c6 0 11-5 11-11 0-6-5-10-11-10z"/>
<glyph unicode="&#113;" d="M256 181c-40 0-73 38-73 85 0 47 33 86 73 86 40 0 73-39 73-86 0-47-33-85-73-85z m0 149c-29 0-52-28-52-64 0-35 23-64 52-64 29 0 52 29 52 64 0 36-23 64-52 64z m5-57l-10 0c-6 0-10 5-10 11 0 5 4 10 10 10l10 0c6 0 10-5 10-10 0-6-4-11-10-11z m-67 0l-183 0c-6 0-11 5-11 11 0 5 5 10 11 10l183 0c5 0 10-5 10-10 0-6-5-11-10-11z m-106-49c-19 0-35 15-35 35 0 19 16 35 35 35 20 0 36-16 36-35 0-20-16-35-36-35z m0 49c-7 0-14-6-14-14 0-8 7-14 14-14 8 0 14 6 14 14 0 8-6 14-14 14z m413 0l-183 0c-5 0-10 5-10 11 0 5 5 10 10 10l183 0c6 0 11-5 11-10 0-6-5-11-11-11z m-77-49c-20 0-36 15-36 35 0 19 16 35 36 35 19 0 35-16 35-35 0-20-16-35-35-35z m0 49c-8 0-14-6-14-14 0-8 6-14 14-14 8 0 14 6 14 14 0 8-6 14-14 14z m-168 61c-6 0-11 4-11 10l0 50c0 6 5 11 11 11 6 0 11-5 11-11l0-50c0-6-5-10-11-10z m80 0l-160 0c-5 0-10 4-10 10 0 6 5 11 10 11l160 0c5 0 10-5 10-11 0-6-5-10-10-10z m-80-227c-6 0-11 5-11 11l0 29c0 6 5 11 11 11 6 0 11-5 11-11l0-29c0-6-5-11-11-11z m-133 29c-6 0-11 5-11 11l0 30c0 5 5 10 11 10 6 0 11-5 11-10l0-30c0-6-5-11-11-11z m39 0c-6 0-11 5-11 11l0 30c0 5 5 10 11 10 5 0 10-5 10-10l0-30c0-6-5-11-10-11z m203 0c-6 0-11 5-11 11l0 30c0 5 5 10 11 10 6 0 11-5 11-10l0-30c0-6-5-11-11-11z m39 0c-6 0-11 5-11 11l0 30c0 5 5 10 11 10 6 0 10-5 10-10l0-30c0-6-4-11-10-11z"/>
<glyph unicode="&#114;" d="M180 0c-50 0-90 40-90 90 0 49 40 90 90 90 50 0 90-41 90-90 0-50-40-90-90-90z m0 158c-38 0-69-30-69-68 0-38 31-69 69-69 38 0 69 31 69 69 0 38-31 68-69 68z m231-95l-143 0c-6 0-11 5-11 11 0 6 5 10 11 10l143 0c6 0 11-4 11-10 0-6-5-11-11-11z m-208 95c-1 0-2 1-3 1-5 1-9 7-8 13l65 260-39 64c-3 5-2 11 3 14 5 4 12 2 15-3l41-67c2-3 2-6 1-9l-65-264c-1-5-5-9-10-9z"/>
<glyph unicode="&#115;" d="M11 42c-1 0-3 0-4 0-4 2-7 6-7 10l0 188c0 5 3 9 7 10 4 2 9 0 12-3l74-90c3-4 3-9 0-13l-74-98c-2-3-5-4-8-4z m10 168l0-126 50 66z m181-71l-51 0c-6 0-10 5-10 11 0 6 4 11 10 11l51 0c6 0 10-5 10-11 0-6-4-11-10-11z m116 0l-50 0c-6 0-11 5-11 11 0 6 5 11 11 11l50 0c6 0 11-5 11-11 0-6-5-11-11-11z m117 0l-50 0c-6 0-11 5-11 11 0 6 5 11 11 11l50 0c6 0 10-5 10-11 0-6-4-11-10-11z m-142-139c-121 0-219 67-219 150 0 47 32 91 86 119-3 7-4 14-4 21 0 46 57 83 130 83 73 0 130-37 130-83 0-5-1-10-2-15 61-27 98-74 98-125 0-83-98-150-219-150z m-7 352c-59 0-109-29-109-62 0-7 2-13 6-20 2-3 2-6 1-9-1-3-3-5-5-6-52-25-83-64-83-105 0-71 88-129 197-129 109 0 198 58 198 129 0 45-36 86-95 110-3 1-5 3-6 6-1 2-1 5 0 8 3 6 4 11 4 16 0 33-49 62-108 62z m23-67c-1 0-3 0-5 0-6 0-10 5-10 11 0 6 5 11 11 11 0 0 0 0 0 0 25-1 33 3 35 4 3 4 9 5 14 2 4-4 5-11 2-15-3-5-14-13-47-13z m-32 74c-6 0-11 5-11 11l0 106c0 1 0 2 1 2 2 12 13 34 39 34l41 0c6 0 11-5 11-11 0-6-5-10-11-10l-41 0c-13 0-17-12-18-16l0-105c0-6-5-11-11-11z"/>
<glyph unicode="&#116;" d="M257 30c-60 0-102 14-127 44-38 44-27 111-20 161 3 16 5 31 5 42 0 70 64 127 142 127 78 0 141-57 141-127 0-11 2-25 4-42 8-49 17-118-21-162-25-29-67-43-124-43z m0 353c-67 0-120-47-120-106 0-13-3-28-6-46-7-47-16-107 15-144 21-24 58-36 111-36 51 0 87 12 108 36 32 37 23 97 16 145-2 18-4 33-4 45 0 59-54 106-120 106z m117-78l-229 0c-6 0-11 5-11 11 0 6 5 11 11 11l229 0c6 0 11-5 11-11 0-6-5-11-11-11z m24-141l-277 0c-6 0-11 4-11 10 0 6 5 11 11 11l277 0c5 0 10-5 10-11 0-6-5-10-10-10z m-369-164c-1 0-2 0-3 0-5 1-9 7-8 13 16 76 101 88 104 88 6 1 12-3 12-9 1-6-3-11-9-12-3 0-74-10-86-71-1-6-6-9-10-9z m454 0c-5 0-9 3-10 9-12 61-85 71-86 71-6 1-10 6-9 12 0 6 6 10 12 9 3 0 88-12 104-88 1-6-3-12-8-13-1 0-2 0-3 0z m17 446l-488 0c-6 0-11 4-11 10 0 6 5 11 11 11l488 0c6 0 11-5 11-11 0-6-5-10-11-10z m-241-56c-6 0-10 5-10 11l0 100c0 6 4 11 10 11 6 0 11-5 11-11l0-100c0-6-5-11-11-11z"/>
<glyph unicode="&#117;" d="M423 48c-49 0-89 40-89 89 0 49 40 88 89 88 49 0 89-39 89-88 0-49-40-89-89-89z m0 156c-37 0-67-30-67-67 0-38 30-68 67-68 37 0 68 30 68 68 0 37-31 67-68 67z m-321-156c-49 0-89 40-89 89 0 49 40 88 89 88 49 0 89-39 89-88 0-49-40-89-89-89z m0 156c-37 0-68-30-68-67 0-38 31-68 68-68 37 0 68 30 68 68 0 37-31 67-68 67z m-85-58c-5 0-9 3-11 8-1 6-32 143 56 176l0 34c0 6 5 11 11 11l154 0c4 0 8-3 10-7 1-4 0-8-2-11-22-24-53-69-46-92 1-2 3-11 21-15 38-8 100 18 116 59 15 37-12 77-75 112-4 3-6 7-5 11 0 5 4 8 8 9 2 0 51 9 100-27 50-36 82-103 95-198 0-6-4-11-10-12-5-1-11 3-12 9-12 89-41 151-85 183-16 12-32 18-46 22 63-48 59-92 50-116-20-54-94-83-141-73-24 6-33 20-37 30-9 30 18 71 36 94l-120 0 0-31c0-5-3-9-8-11-79-21-49-151-49-152 1-6-2-11-8-13-1 0-1 0-2 0z m320-20l-146 0c-6 0-11 5-11 11 0 5 5 10 11 10l146 0c6 0 11-5 11-10 0-6-5-11-11-11z m-326 211c-6 0-11 5-11 10l0 107c0 6 5 10 11 10 6 0 10-4 10-10l0-107c0-5-4-10-10-10z m432 29l-46 0c-6 0-11 5-11 11 0 6 5 10 11 10l46 0c6 0 11-4 11-10 0-6-5-11-11-11z"/>
<glyph unicode="&#118;" d="M259 421c-3 0-6 1-8 3-4 4-4 11 0 15l39 39c4 4 11 4 15 0 4-4 4-11 0-15l-39-39c-2-2-5-3-7-3z m-70 31c-3 0-5 1-7 3-5 4-5 11 0 15l38 39c4 4 11 4 15 0 5-4 5-11 0-15l-38-39c-2-2-5-3-8-3z m46-452c0 0-1 0-1 0-3 0-6 2-8 4l-74 103c-15-2-27 2-35 10-8 8-12 20-10 35l-103 74c-2 2-4 5-4 8 0 3 1 6 3 9l32 31c3 3 7 4 11 2l111-48 71 76-160 116c-2 2-4 5-4 8-1 3 1 6 3 8l52 53c3 3 8 4 12 2l194-85 63 66c17 18 39 28 60 28 14 0 27-5 37-15 10-10 15-23 15-38 0-21-10-42-28-59l-66-63 85-194c2-4 1-9-2-12l-53-52c-2-2-5-4-8-3-3 0-6 2-8 4l-116 160-76-71 48-111c2-4 1-8-2-11l-31-32c-2-2-5-3-8-3z m-79 129c4 0 7-1 9-4l71-98 18 18-48 110c-2 4-1 9 2 12l90 85c2 2 5 3 8 3 3 0 6-2 8-4l116-160 39 38-86 195c-1 4 0 9 3 12l72 68c12 12 20 28 21 43 0 7-2 16-9 23-7 7-16 8-22 8-15 0-32-7-44-20l-68-72c-3-3-8-4-12-3l-195 86-38-39 160-116c2-2 4-5 4-8 0-3-1-6-3-8l-85-90c-3-3-8-4-12-2l-110 48-18-18 98-71c4-3 5-7 4-11-2-10-1-18 3-22 4-4 12-5 22-3 1 0 1 0 2 0z m276 119c-3 0-6 1-8 3-4 4-4 11 0 15l39 39c4 4 11 4 15 0 4-4 4-11 0-15l-39-39c-2-2-4-3-7-3z m31-70c-3 0-6 1-8 4-4 4-4 10 0 15l39 38c4 4 11 4 15 0 4-4 4-11 0-15l-39-38c-2-3-5-4-7-4z"/>
<glyph unicode="&#119;" d="M380 64c-1 0-2 0-3 0-5 1-9 7-8 13 11 49 37 84 58 104l-344-26-19-2 38-74c3-5 1-11-4-14-6-3-12-1-15 5l-45 86c-2 3-2 7 0 10 1 3 4 5 8 6l35 5 378 28c5 0 10-3 11-8 2-4 0-9-4-12-1 0-60-37-76-113-1-5-5-8-10-8z m-297 92c-6 0-11 5-11 11l0 66c0 6 5 10 11 10l91 0c6 0 11-4 11-10l0-55c0-5-5-10-11-10-6 0-11 5-11 10l0 44-69 0 0-55c0-6-5-11-11-11z m291 18c-6 0-11 5-11 11l0 114-199 0 0-50c0-6-5-11-11-11-6 0-10 5-10 11l0 61c0 6 4 11 10 11l221 0c6 0 11-5 11-11l0-125c0-6-5-11-11-11z m-63 53c-6 0-11 5-11 11l0 19c0 6 5 11 11 11 6 0 11-5 11-11l0-19c0-6-5-11-11-11z m-75 0c-6 0-11 5-11 11l0 19c0 6 5 11 11 11 5 0 10-5 10-11l0-19c0-6-5-11-10-11z m-155-179c-27 0-49 6-74 14-5 2-8 8-6 14 2 6 8 8 13 7 25-9 46-14 72-14 15 1 23 5 34 11 6 3 13 7 22 10 47 16 107 0 130-7 3-1 6-2 9-3 18-6 32-11 52-9 9 1 18 5 27 8 8 4 18 7 27 9 26 4 48-2 69-8 15-4 30-8 45-8 6 0 11-5 11-11 0-6-5-11-11-11 0 0 0 0 0 0-18 0-35 5-51 9-19 6-38 11-59 7-8-1-16-4-24-7-10-3-20-7-32-9-25-2-42 3-60 9-3 1-6 2-9 3-17 6-75 22-117 8-7-3-13-6-19-9-12-6-24-12-43-13-2 0-4 0-6 0z m152 251c-6 0-11 5-11 11l0 143c0 6 5 11 11 11 5 0 10-5 10-11l0-143c0-6-5-11-10-11z"/>
<glyph unicode="&#120;" d="M256 63l-85 0c-5 0-10 4-10 9-1 1-11 86-57 139-2 2-3 6-2 10 1 3 4 6 7 7 2 0 118 35 137 98 1 5 6 8 12 7 5-1 9-5 9-10l0-250c0-6-5-10-11-10z m-76 21l65 0 0 199c-32-38-88-61-115-71 34-46 47-105 50-128z m161-21l-85 0c-6 0-11 4-11 10l0 250c0 5 4 9 9 10 6 1 11-2 12-7 19-63 135-98 137-98 3-1 6-4 7-7 1-4 0-8-2-10-47-54-56-138-57-139 0-5-5-9-10-9z m-74 21l65 0c3 23 16 82 50 129-28 10-83 33-115 70z m-154-84c-9 0-18 1-27 4-6 2-9 8-7 14 2 5 8 8 13 7 22-8 44-1 67 5 22 6 45 13 71 8 7-1 12-3 17-5 5-2 9-4 13-5 11-1 18 2 28 8 25 13 41 7 58 0 4-2 8-4 13-6 22-8 41-4 57 11 4 4 11 3 15-1 4-4 4-11-1-15-21-20-48-25-78-15-5 2-10 4-15 6-15 6-23 10-38 1-14-8-25-12-41-10-8 1-14 4-19 6-5 2-9 3-13 4-21 4-40-2-61-8-17-4-34-9-52-9z m247 222c-6 0-10 5-10 11l0 123-188 0 0-123c0-6-4-11-10-11-6 0-11 5-11 11l0 133c0 6 5 11 11 11l208 0c6 0 11-5 11-11l0-133c0-6-5-11-11-11z m-104 143c-6 0-11 5-11 10l0 126c0 6 5 11 11 11 6 0 11-5 11-11l0-126c0-5-5-10-11-10z"/>
<glyph unicode="&#121;" d="M95 51c-4 0-7 2-9 5l-25 45c-2 3-2 7 0 10 2 3 5 5 9 5 3 0 280 1 427 60 5 2 10 0 13-4 3-4 3-9 0-13l-81-98c-4-4-10-5-15-1-4 3-5 10-1 15l56 68c-132-40-322-47-381-48l16-29c3-5 1-11-4-14-2-1-3-1-5-1z m210-18c-2 0-3 0-4 0-13 1-25 7-35 12-12 6-22 12-32 9-6-1-12-4-18-8-15-7-34-16-56-3-22 13-40 21-57 12-4-2-7-4-10-6-10-6-19-11-37-11-10 0-18 1-26 3-3 0-7 2-10 3-3 1-7 3-9 3-6 0-11 4-11 10 0 6 4 11 10 11 7 0 13-2 18-4 3-1 5-2 7-3 6-1 12-2 21-2 12 0 17 3 26 8 3 2 7 5 11 7 29 15 57-1 78-13 11-7 20-3 35 5 8 3 15 7 23 9 18 4 33-4 47-11 9-5 17-9 26-10 15-1 26 5 40 12 3 2 7 4 10 5 20 10 38 2 54-4 3-1 5-2 8-3l1-1c12-4 22-8 33-6 6 1 12 4 19 7 9 5 20 10 31 10 0 0 1 0 1 0 6 0 10-5 10-11 0-6-5-10-10-10-1 0-1 0-1 0-6 0-14-4-22-8-8-4-15-7-24-9-16-3-31 2-45 7l-1 1c-3 1-5 2-8 3-16 7-26 10-37 5-3-2-6-3-9-5-14-7-28-14-47-14z m-38 86c-5 0-10 5-10 11l0 54c0 6 5 10 10 10 6 0 11-4 11-10l0-54c0-6-5-11-11-11z m-165 36c-5 0-10 4-11 8-1 6 2 11 7 13 109 42 159 292 160 295 1 3 3 6 6 7 3 1 6 2 9 0 184-89 204-274 204-276 0-6-4-11-10-11l-364-36c-1 0-1 0-1 0z m174 298c-11-48-51-204-130-272l308 30c-7 38-40 169-178 242z"/>
<glyph unicode="&#122;" d="M286 190c-5 0-10 4-10 10-1 6 3 11 9 12 195 20 205 43 206 46-1 5-22 16-47 23-2 0-4 2-5 4l-30 38c-37 30-202-1-304-29-3-1-6 0-8 1-3 2-5 4-5 7-7 38-20 64-40 78-11 7-22 9-29 10l20-135c24-29 99-41 126-43 6-1 10-6 9-12 0-6-5-10-11-10-4 1-110 10-143 55-1 1-2 3-2 5l-22 148c-1 5 3 11 8 12 1 0 29 6 56-12 23-15 38-42 47-80 55 14 262 65 312 21 1-1 1-1 2-2l28-37c21-5 61-20 59-44-2-21-30-45-225-66 0 0 0 0-1 0z m-94-89l-83 0c-4 0-7 2-9 6-2 3-2 7 0 11l90 136c2 3 5 5 9 5l127 0c4 0 8-3 10-7 2-4 1-8-2-11l-135-137c-2-2-4-3-7-3z m-63 21l58 0 114 115-96 0z"/>
<glyph unicode="&#65;" d="M219 193c-123 0-219 57-219 131 0 73 96 131 219 131 46 0 91-9 128-24l38 70c1 4 5 6 9 6l40 0c6 0 11-5 11-11l0-122 61-31c4-2 6-6 6-11 0-4-4-8-8-9l-68-19c-15-64-107-111-217-111z m0 241c-109 0-198-50-198-110 0-61 89-110 198-110 102 0 189 44 198 101 0 4 3 7 7 8l48 13-43 22c-4 2-6 5-6 9l0 118-23 0-38-73c-3-5-9-7-14-5-36 17-82 27-129 27z m101-429l-160 0c-24 0-44 21-44 48l0 67c0 26 20 47 44 47l160 0c25 0 45-21 45-47l0-67c0-27-20-48-45-48z m-160 141c-13 0-23-12-23-26l0-67c0-15 10-26 23-26l160 0c13 0 23 11 23 26l0 67c0 14-10 26-23 26z m47-88c-6 0-11 4-11 10l0 36c0 6 5 11 11 11 6 0 11-5 11-11l0-36c0-6-5-10-11-10z m66 0c-6 0-10 4-10 10l0 36c0 6 4 11 10 11 6 0 11-5 11-11l0-36c0-6-5-10-11-10z m-41 88c-6 0-11 4-11 10l0 47c0 6 5 11 11 11 6 0 11-5 11-11l0-47c0-6-5-10-11-10z"/>
<glyph unicode="&#66;" d="M498 201l-18 0c-6 0-11 5-11 11 0 6 5 10 11 10l9 0c8 50-15 98-23 114l-61 0 0-93c0-6-5-11-10-11l-384 0c-6 0-11 5-11 11 0 6 5 11 11 11l373 0 0 92c0 6 5 11 11 11l78 0c3 0 7-2 9-5 2-3 42-71 26-143-1-4-5-8-10-8z m-2 67l-95 0c-6 0-10 5-10 11 0 6 4 11 10 11l95 0c5 0 10-5 10-11 0-6-5-11-10-11z m-48-113c-23 0-43 19-43 43 0 24 20 44 43 44 24 0 44-20 44-44 0-24-20-43-44-43z m0 66c-12 0-22-10-22-23 0-12 10-22 22-22 13 0 23 10 23 22 0 13-10 23-23 23z m-386-66c-24 0-43 19-43 43 0 24 19 44 43 44 24 0 43-20 43-44 0-24-19-43-43-43z m0 66c-12 0-22-10-22-23 0-12 10-22 22-22 12 0 22 10 22 22 0 13-10 23-22 23z m105-66c-24 0-43 19-43 43 0 24 19 44 43 44 24 0 43-20 43-44 0-24-19-43-43-43z m0 66c-12 0-22-10-22-23 0-12 10-22 22-22 12 0 22 10 22 22 0 13-10 23-22 23z"/>
<glyph unicode="&#67;" d="M345 237l92-86-15-15-92 85z m-36 8c-3 0-6 1-8 3l-21 20c-2 2-4 5-3 8 0 4 1 6 4 8l30 22c2 2 6 2 9 1l69-25c5-3 8-9 6-14-2-6-8-9-13-6l-64 23-14-10 12-11c4-4 4-11 0-15-2-3-5-4-7-4z m164-153c-3 0-5 1-7 3l-15 14c-4 4-5 11-1 15 4 4 11 4 15 0l8-6 15 16-8 13c-3 5-1 11 4 14 5 3 11 2 14-3l12-19c3-4 2-10-1-13l-28-31c-2-2-5-3-7-3-1 0-1 0-1 0z m16 50c0 0 0 0 0 0-6 0-11 5-10 11l1 43-44 41-52 25c-6 2-8 8-5 14 2 5 8 7 14 5l54-25c1-1 2-1 2-2l49-45c2-2 4-5 4-9l-2-48c0-6-5-10-11-10z m-173 60c-8 0-16 3-22 9-14 12-14 33-2 46 12 13 34 14 46 2 7-6 11-14 11-23 0-9-3-17-9-23-6-7-15-11-24-11z m0 45c-3 0-6-2-9-4-4-5-4-12 1-16 5-5 12-4 16 0 3 3 4 5 4 9-1 3-2 5-4 8-2 2-5 3-8 3z m121-157c-8 0-16 3-22 8-7 6-11 15-11 23 0 9 3 17 9 24 12 13 34 13 46 2 13-13 14-33 2-47-6-6-15-10-24-10z m0 44c-3 0-6-1-9-4-2-2-3-5-3-8 1-3 2-6 4-8 5-4 12-4 16 1 5 4 4 12 0 16-2 2-5 3-8 3z m-398-11l-28 0c-6 0-11 5-11 11l0 51c0 25 34 80 41 91 2 3 6 5 9 5l73 0c6 0 11-5 11-11 0-6-5-11-11-11l-67 0c-15-23-35-60-35-74l0-41 18 0c6 0 11-5 11-10 0-6-5-11-11-11z m212 0l-135 0c-6 0-11 5-11 11 0 5 5 10 11 10l135 0c6 0 10-5 10-10 0-6-4-11-10-11z m114 0l-53 0c-6 0-11 5-11 11 0 5 5 10 11 10l53 0c6 0 10-5 10-10 0-6-4-11-10-11z m-287-32c-23 0-41 18-41 41 0 23 18 41 41 41 23 0 41-18 41-41 0-23-18-41-41-41z m0 61c-11 0-20-9-20-20 0-11 9-20 20-20 11 0 20 9 20 20 0 11-9 20-20 20z m203-61c-22 0-41 18-41 41 0 23 19 41 41 41 23 0 41-18 41-41 0-23-18-41-41-41z m0 61c-11 0-20-9-20-20 0-11 9-20 20-20 11 0 20 9 20 20 0 11-9 20-20 20z m-158-24c-6 0-11 4-11 10l0 130c0 6 5 11 11 11 6 0 11-5 11-11l0-130c0-6-5-10-11-10z m-2 63l-106 0c-6 0-10 5-10 11 0 6 4 11 10 11l106 0c6 0 11-5 11-11 0-6-5-11-11-11z m-35 72c-6 0-10 5-10 11l0 29c0 6 4 10 10 10 6 0 11-4 11-10l0-29c0-6-5-11-11-11z m81-135c-6 0-11 4-11 10l0 274c0 6 5 10 11 10 6 0 10-4 10-10l0-274c0-6-4-10-10-10z m84 242l-81 0c-6 0-11 5-11 11 0 6 5 11 11 11l81 0c6 0 10-5 10-11 0-6-4-11-10-11z m-20-184c-22 0-31 15-32 23-1 1-1 1-1 2l0 170c0 6 5 11 11 11 6 0 11-5 11-11l0-168c0-2 3-6 11-6 14 0 16 14 17 17 1 5 6 10 12 9 6-1 10-6 9-12-2-12-11-35-38-35z"/>
<glyph unicode="&#68;" d="M501 121l-49 0c-6 0-11 5-11 11 0 6 5 10 11 10l49 0c6 0 11-4 11-10 0-6-5-11-11-11z m-167 0l-147 0c-6 0-11 5-11 11 0 6 5 10 11 10l147 0c6 0 11-4 11-10 0-6-5-11-11-11z m-269 0l-65 0 0 104c0 2 5 184 174 184 6 0 10-5 10-11 0-6-4-11-10-11-148 0-153-156-153-162l0-83 44 0c6 0 11-4 11-10 0-6-5-11-11-11z m436 0c-6 0-10 5-10 11l0 294-294 0 0-294c0-6-5-11-10-11-6 0-11 5-11 11l0 304c0 6 5 11 11 11l314 0c6 0 11-5 11-11l0-304c0-6-5-11-11-11z m-109-56c-36 0-64 29-64 64 0 36 28 64 64 64 35 0 64-28 64-64 0-35-29-64-64-64z m0 107c-24 0-43-19-43-43 0-23 19-43 43-43 23 0 43 20 43 43 0 24-20 43-43 43z m-272-107c-35 0-64 29-64 64 0 36 29 64 64 64 36 0 64-28 64-64 0-35-28-64-64-64z m0 107c-23 0-43-19-43-43 0-23 20-43 43-43 24 0 43 20 43 43 0 24-19 43-43 43z m283 124l-113 0c-6 0-11 4-11 10 0 6 5 11 11 11l113 0c6 0 11-5 11-11 0-6-5-10-11-10z m-57-57c-5 0-10 5-10 11l0 113c0 6 5 11 10 11 6 0 11-5 11-11l0-113c0-6-5-11-11-11z"/>
<glyph unicode="&#69;" d="M471 101l-243 0c-23 0-41 19-41 41l0 14c0 22 18 41 41 41l243 0c23 0 41-19 41-41l0-14c0-22-18-41-41-41z m-243 74c-11 0-20-8-20-19l0-14c0-11 9-19 20-19l243 0c11 0 20 8 20 19l0 14c0 11-9 19-20 19z m255 0c-5 0-10 4-11 9l-14 91-57 0c-5 0-10 4-10 10l-7 104-78 0-39-107c-2-4-6-7-10-7l-24 0-11-82c-1-6-6-10-12-9-6 0-10 6-9 12l12 91c0 5 5 9 10 9l26 0 40 108c2 4 6 7 10 7l95 0c5 0 10-5 10-10l7-105 56 0c5 0 9-3 10-9l16-99c1-6-3-12-8-13-1 0-2 0-2 0z m-333-14c-3 0-5 1-7 3-5 4-5 11 0 15l60 61c4 5 11 5 15 0 4-4 4-10 0-15l-60-61c-2-2-5-3-8-3z m-7-53c-1 0-1 0-2 0l-132 20c-4 0-8 3-9 8-1 4 1 9 5 11l139 95c4 2 8 2 11 0 4-2 6-6 6-10l-7-114c-1-3-2-6-4-7-2-2-5-3-7-3z m-104 37l94-14 5 81z"/>
<glyph unicode="&#70;" d="M11 168c-3 0-5 1-7 2-5 4-5 11-1 15l46 55c2 2 5 4 8 4l246 0 0 171c0 6 5 10 11 10l137 0c4 0 7-2 9-5 3-5 73-122 46-244-1-5-6-8-11-8l-32 0c-6 0-10 4-10 10 0 6 4 11 10 11l24 0c17 97-30 192-42 215l-121 0 0-171c0-6-4-11-10-11l-252 0-43-51c-2-2-5-3-8-3z m480 118l-165 0c-6 0-11 5-11 10 0 6 5 11 11 11l165 0c6 0 11-5 11-11 0-5-5-10-11-10z m-319-199c-38 0-68 30-68 68 0 38 30 68 68 68 18 0 35-7 48-20 13-13 20-30 20-48 0-38-31-68-68-68z m0 115c-26 0-47-21-47-47 0-26 21-47 47-47 26 0 47 21 47 47 0 26-21 47-47 47z m237-115c-38 0-69 30-69 68 0 38 31 68 69 68 37 0 68-30 68-68 0-38-31-68-68-68z m0 115c-26 0-47-21-47-47 0-26 21-47 47-47 25 0 46 21 46 47 0 26-21 47-46 47z"/>
<glyph unicode="&#71;" d="M341 262l-330 0c-6 0-11 5-11 11l0 88c0 6 5 11 11 11l330 0c6 0 10-5 10-11l0-88c0-6-4-11-10-11z m-320 21l309 0 0 68-309 0z m198-96c-3 0-5 0-7 2-5 4-5 11-1 15l26 32c2 2 5 3 8 3l138 0 0 94c0 6 4 11 10 11l79 0c4 0 8-2 9-5 2-3 43-72 27-144-1-5-5-8-10-8l-19 0c-6 0-10 4-10 10 0 6 4 11 10 11l10 0c8 50-15 99-23 115l-62 0 0-94c0-6-5-11-11-11l-143 0-23-28c-2-2-5-3-8-3z m277 68l-96 0c-6 0-10 4-10 10 0 6 4 11 10 11l96 0c5 0 10-5 10-11 0-6-5-10-10-10z m-184-115c-25 0-44 20-44 44 0 24 19 44 44 44 24 0 43-20 43-44 0-24-19-44-43-44z m0 66c-13 0-23-10-23-22 0-13 10-23 23-23 12 0 22 10 22 23 0 12-10 22-22 22z m136-66c-24 0-44 20-44 44 0 24 20 44 44 44 24 0 44-20 44-44 0-24-20-44-44-44z m0 66c-13 0-23-10-23-22 0-13 10-23 23-23 12 0 22 10 22 23 0 12-10 22-22 22z m-391-66c-24 0-44 20-44 44 0 24 20 44 44 44 24 0 44-20 44-44 0-24-20-44-44-44z m0 66c-12 0-22-10-22-22 0-13 10-23 22-23 12 0 23 10 23 23 0 12-11 22-23 22z m91-66c-24 0-44 20-44 44 0 24 20 44 44 44 24 0 44-20 44-44 0-24-20-44-44-44z m0 66c-12 0-23-10-23-22 0-13 11-23 23-23 12 0 22 10 22 23 0 12-10 22-22 22z"/>
<glyph unicode="&#72;" d="M299 102l-143 0c-6 0-11 5-11 11 0 6 5 10 11 10l143 0c6 0 11-4 11-10 0-6-5-11-11-11z m158 0l-65 0c-5 0-10 5-10 11 0 6 5 10 10 10l65 0c18 0 34 16 34 34l0 240c0 19-16 34-34 34l-373 0c-19 0-34-15-34-34 0-1 0-1 0-2l-29-139 0-99c0-19 16-34 34-34l9 0c6 0 11-4 11-10 0-6-5-11-11-11l-9 0c-30 0-55 25-55 55l0 100c0 0 0 1 0 2l29 139c0 30 25 54 55 54l373 0c30 0 55-25 55-55l0-240c0-30-25-55-55-55z m-16 247c-6 0-11 5-11 11l0 26c0 6 5 10 11 10 6 0 11-4 11-10l0-26c0-6-5-11-11-11z m-69 0c-6 0-11 5-11 11l0 26c0 6 5 10 11 10 5 0 10-4 10-10l0-26c0-6-5-11-10-11z m-70 0c-6 0-11 5-11 11l0 26c0 6 5 10 11 10 6 0 11-4 11-10l0-26c0-6-5-11-11-11z m-70 0c-6 0-10 5-10 11l0 26c0 6 4 10 10 10 6 0 11-4 11-10l0-26c0-6-5-11-11-11z m-69 0c-6 0-11 5-11 11l0 26c0 6 5 10 11 10 6 0 10-4 10-10l0-26c0-6-4-11-10-11z m278-130c-6 0-11 5-11 11l0 26c0 6 5 10 11 10 6 0 11-4 11-10l0-26c0-6-5-11-11-11z m-69 0c-6 0-11 5-11 11l0 26c0 6 5 10 11 10 5 0 10-4 10-10l0-26c0-6-5-11-10-11z m-70 0c-6 0-11 5-11 11l0 26c0 6 5 10 11 10 6 0 11-4 11-10l0-26c0-6-5-11-11-11z m-139 0c-6 0-11 5-11 11l0 26c0 6 5 10 11 10 6 0 10-4 10-10l0-26c0-6-4-11-10-11z m69-115c-6 0-10 4-10 10l0 142c0 6 4 10 10 10 6 0 11-4 11-10l0-142c0-6-5-10-11-10z m-142 167l-59 0c-6 0-11 5-11 11 0 6 5 11 11 11l51 0 22 97-63 0c-6 0-11 4-11 10 0 6 5 11 11 11l76 0c3 0 6-2 8-4 2-3 3-6 3-9l-27-118c-1-5-6-9-11-9z m411 25l-400 0c-6 0-11 5-11 11 0 6 5 10 11 10l400 0c6 0 11-4 11-10 0-6-5-11-11-11z m-393-236c-30 0-54 24-54 54 0 30 24 55 54 55 30 0 55-25 55-55 0-30-25-54-55-54z m0 87c-18 0-33-14-33-33 0-18 15-33 33-33 19 0 34 15 34 33 0 19-15 33-34 33z m238-87c-30 0-54 24-54 54 0 30 24 55 54 55 30 0 55-25 55-55 0-30-25-54-55-54z m0 87c-18 0-33-14-33-33 0-18 15-33 33-33 18 0 33 15 33 33 0 19-15 33-33 33z"/>
<glyph unicode="&#73;" d="M380 39l-205 0c-154 0-175 126-175 128 0 3 1 6 3 8 2 3 5 4 8 4l490 0c6 0 11-5 11-11 0-102-128-128-130-129 0 0-1 0-2 0z m-356 119c9-29 42-98 151-98l204 0c11 3 103 26 111 98z m219 0l-115 0c-6 0-11 4-11 10l0 147c0 6 5 10 11 10l115 0c6 0 10-4 10-10l0-147c0-6-4-10-10-10z m-104 21l93 0 0 125-93 0z m324-21l-220 0c-6 0-11 4-11 10l0 123c0 6 5 10 11 10l220 0c6 0 10-4 10-10l0-123c0-6-4-10-10-10z m-210 21l199 0 0 101-199 0z m55 101c-6 0-10 5-10 11l0 171c0 6 4 11 10 11 6 0 11-5 11-11l0-171c0-6-5-11-11-11z m49 134l-101 0c-6 0-11 4-11 10 0 6 5 11 11 11l101 0c6 0 11-5 11-11 0-6-5-10-11-10z"/>
<glyph unicode="&#74;" d="M222 193c-45 0-199 75-216 83-4 2-6 6-6 10 0 4 3 8 7 10l353 147c3 2 6 2 9 0 3-1 5-4 6-7 5-25 24-162 25-168 0-5-2-9-6-11-6-3-129-59-168-64-1 0-3 0-4 0z m-185 92c55-26 156-71 185-71 0 0 0 0 0 0 0 0 1 0 2 0 27 3 114 41 154 59-4 26-16 110-22 146z m132-282c-33 0-64 21-75 52-8 20-8 42 1 62 9 19 25 35 45 42 9 4 19 6 29 6 33 0 63-21 75-52 8-20 7-42-2-62-8-19-24-35-44-42-10-4-19-6-29-6z m0 140c-8 0-15-1-22-4-14-5-26-16-32-31-7-14-7-31-2-45 9-23 31-38 56-38 7 0 14 1 21 4 15 5 27 16 33 31 6 14 7 31 1 45-9 23-31 38-55 38z m7-67c-2 0-5 1-7 3-4 4-5 10-1 15l54 63c2 1 3 2 5 3l207 80-25 196c0 4 2 8 5 10l81 61c5 3 11 2 15-3 3-4 2-11-2-15l-77-56 25-199c1-5-2-9-6-11l-213-82-53-61c-2-2-5-4-8-4z"/>
<glyph unicode="&#75;" d="M422 83l-332 0c-44 0-80 36-80 79l0 9c0 43 36 79 80 79l332 0c44 0 80-36 80-79l0-9c0-43-36-79-80-79z m-332 145c-32 0-59-26-59-57l0-9c0-31 27-57 59-57l332 0c33 0 59 26 59 57l0 9c0 31-26 57-59 57z m368 0l-404 0 40 160 324 0z m-377 22l350 0-30 117-290 0z m19-250l-11 0c-25 0-46 20-46 45l0 40c0 6 5 10 11 10 6 0 11-4 11-10l0-40c0-13 11-24 24-24l11 0c13 0 24 11 24 24l0 40c0 6 5 10 11 10 5 0 10-4 10-10l0-40c0-25-20-45-45-45z m323 0l-11 0c-25 0-45 20-45 45l0 40c0 6 5 10 10 10 6 0 11-4 11-10l0-40c0-13 11-24 24-24l11 0c13 0 24 11 24 24l0 40c0 6 5 10 11 10 6 0 11-4 11-10l0-40c0-25-21-45-46-45z m-297 166c0-10-8-18-19-18-10 0-19 8-19 18 0 11 9 19 19 19 11 0 19-8 19-19z m298 0c0-10-9-18-19-18-11 0-20 8-20 18 0 11 9 19 20 19 10 0 19-8 19-19z m-98-10l-140 0c-6 0-11 5-11 10 0 6 5 11 11 11l140 0c6 0 11-5 11-11 0-5-5-10-11-10z m-259 116l-56 0c-6 0-11 5-11 11 0 6 5 11 11 11l56 0c6 0 11-5 11-11 0-6-5-11-11-11z m434 0l-56 0c-6 0-11 5-11 11 0 6 5 11 11 11l56 0c6 0 11-5 11-11 0-6-5-11-11-11z m-324 132c-30 0-54 24-54 54 0 30 24 54 54 54 31 0 55-24 55-54 0-30-24-54-55-54z m0 87c-18 0-33-15-33-33 0-18 15-33 33-33 19 0 34 15 34 33 0 18-15 33-34 33z m157-87c-30 0-54 24-54 54 0 30 24 54 54 54 31 0 55-24 55-54 0-30-24-54-55-54z m0 87c-18 0-33-15-33-33 0-18 15-33 33-33 19 0 34 15 34 33 0 18-15 33-34 33z m-30-219l-96 0c-6 0-11 5-11 11 0 6 5 11 11 11l96 0c6 0 11-5 11-11 0-6-5-11-11-11z"/>
<glyph unicode="&#76;" d="M69 0c-38 0-69 31-69 70 0 38 31 69 69 69 38 0 68-31 68-69 0-39-30-70-68-70z m0 118c-26 0-48-22-48-48 0-27 22-49 48-49 26 0 47 22 47 49 0 26-21 48-47 48z m327-118c-64 0-116 53-116 118 0 65 52 118 116 118 64 0 116-53 116-118 0-65-52-118-116-118z m0 214c-52 0-95-43-95-96 0-53 43-97 95-97 52 0 95 44 95 97 0 53-43 96-95 96z m-327-87c-1 0-2 0-3 1-6 1-9 7-8 13l35 122c1 4 5 7 9 8l317 41c5 0 10-2 11-7l34-94c2-6-1-12-6-14-6-2-12 1-14 7l-31 86-302-40-32-115c-1-5-6-8-10-8z m233-68l-168 0c-5 0-10 5-10 11 0 6 5 10 10 10l168 0c6 0 10-4 10-10 0-6-4-11-10-11z m110 242c-5 0-9 4-10 9l-24 149c0 0-9 32-42 32l-167 0c-6 0-11 4-11 10 0 6 5 11 11 11l167 0c40 0 58-32 63-49l24-149c1-6-3-12-9-13-1 0-1 0-2 0z m-223-32c-1 0-2 0-2 0-6 1-10 7-9 13l39 221c1 6 7 10 12 9 6-1 10-7 9-13l-39-221c-1-5-5-9-10-9z"/>
<glyph unicode="&#77;" d="M126 203l243 0 0-21-243 0z m375-21l-56 0 0 21 43 0-9 49-120 21-338 0 0-70 29 0 0-21-39 0c-6 0-11 5-11 11l0 91c0 6 5 10 11 10l349 0c0 0 1 0 2 0l127-22c5-1 8-4 9-9l14-68c0-3 0-7-2-9-2-3-5-4-9-4z m-150 96l-64 93-63 0 0-87-22 0 0 98c0 6 5 11 11 11l80 0c3 0 6-2 8-5l68-98z m56-159c-29 0-53 24-53 54 0 29 24 53 53 53 30 0 54-24 54-53 0-30-24-54-54-54z m0 86c-17 0-32-14-32-32 0-18 15-32 32-32 18 0 33 14 33 32 0 18-15 32-33 32z m-319-86c-29 0-53 24-53 54 0 29 24 53 53 53 30 0 54-24 54-53 0-30-24-54-54-54z m0 86c-18 0-32-14-32-32 0-18 14-32 32-32 18 0 32 14 32 32 0 18-14 32-32 32z"/>
<glyph unicode="&#78;" d="M347 162c-35 0-68 13-90 34l-163 66c-5 2-8 7-7 12 1 5 5 8 11 8l145-2c17 31 58 52 104 52 63 0 113-38 113-85 0-47-50-85-113-85z m-191 98l111-45c2 0 3-1 4-2 17-18 46-29 76-29 51 0 92 28 92 63 0 35-41 64-92 64-40 0-76-19-87-46-2-4-6-7-10-7z m-86-23c-5 0-9 2-10 6l-35 84c-2 5 1 11 6 13 5 3 12 0 14-5l35-84c2-5-1-11-6-14-2 0-3 0-4 0z m-59 24c-5 0-8 2-10 7-2 5 0 11 6 13l83 35c5 2 12 0 14-6 2-5 0-11-6-14l-83-34c-2-1-3-1-4-1z m418-155l-160 0c-3 0-6 1-8 4-2 2-3 5-3 8 5 49 18 70 19 71 3 5 9 7 14 4 5-3 7-10 4-15 0 0-9-16-14-51l135 0c-3 12-10 31-22 47-3 4-2 11 2 15 5 3 12 2 15-2 23-30 28-67 28-69 0-3 0-6-3-8-2-3-4-4-7-4z m72 267l-316 0c-6 0-11 5-11 11 0 6 5 11 11 11l316 0c6 0 11-5 11-11 0-6-5-11-11-11z m-158-62c-6 0-10 4-10 10l0 74c0 6 4 11 10 11 6 0 11-5 11-11l0-74c0-6-5-10-11-10z"/>
<glyph unicode="&#79;" d="M197 76c-5 0-10 4-10 9-1 6 2 11 8 12 25 4 44 22 44 43l0 184c0 23-25 43-55 43l-62 0c-30 0-55-20-55-43l0-184c0-19 16-37 39-42 6-1 10-7 8-13-1-6-7-9-13-8-32 8-55 34-55 63l0 184c0 35 34 64 76 64l62 0c42 0 76-29 76-64l0-184c0-31-26-58-61-64-1 0-1 0-2 0z m-44-63c-6 0-11 5-11 11l0 175c0 6 5 11 11 11 6 0 10-5 10-11l0-175c0-6-4-11-10-11z m0 372c-32 0-57 25-57 57 0 31 25 57 57 57 31 0 57-26 57-57 0-32-26-57-57-57z m0 92c-20 0-36-16-36-35 0-20 16-36 36-36 19 0 35 16 35 36 0 19-16 35-35 35z m-48-46l-94 0c-6 0-11 5-11 11 0 6 5 10 11 10l94 0c6 0 11-4 11-10 0-6-5-11-11-11z m190 0l-94 0c-6 0-11 5-11 11 0 6 5 10 11 10l94 0c6 0 11-4 11-10 0-6-5-11-11-11z m-119-138l-47 0c-6 0-10 5-10 11 0 6 4 11 10 11l47 0c6 0 11-5 11-11 0-6-5-11-11-11z m276-280c-6 0-11 5-11 11l0 162c0 6 5 11 11 11 6 0 10-5 10-11l0-162c0-6-4-11-10-11z m-65 62c-68 0-124 65-124 145 0 28 7 56 20 80 2 3 6 5 10 5l189 0c4 0 8-2 10-5 13-24 20-52 20-80 0-1 0-3 0-4 0-1 0-1 0-1-1-5-4-9-8-10-5-2-9 0-12 4-10 15-25 24-40 24-29 0-52-28-52-62l0-85c0-6-5-11-10-11-1 0-2 0-3 0z m-88 209c-10-19-15-41-15-64 0-65 42-118 95-123l0 74c0 22 7 42 21 58 13 16 32 25 52 25 13 0 26-4 37-12-2 15-7 29-13 42z"/>
<glyph unicode="&#80;" d="M126 170l243 0 0-22-243 0z m375-22l-56 0 0 22 43 0-9 49-120 21-304 0-34-9 0-61 29 0 0-22-39 0c-6 0-11 5-11 11l0 80c0 5 3 9 8 10l42 12c1 0 2 0 3 0l307 0c0 0 1 0 2 0l127-23c5 0 8-4 9-8l14-69c0-3 0-6-2-9-2-2-5-4-9-4z m-147 93l-113 69-121 0-59-67-16 14 62 71c2 2 5 4 8 4l129 0c2 0 3-1 5-2l116-71z m53-155c-29 0-53 24-53 53 0 30 24 54 53 54 30 0 54-24 54-54 0-29-24-53-54-53z m0 86c-17 0-32-15-32-33 0-17 15-32 32-32 18 0 33 15 33 32 0 18-15 33-33 33z m-319-86c-29 0-53 24-53 53 0 30 24 54 53 54 30 0 54-24 54-54 0-29-24-53-54-53z m0 86c-18 0-32-15-32-33 0-17 14-32 32-32 18 0 32 15 32 32 0 18-14 33-32 33z m46 210l33 0 0-34-33 0z m33 33l34 0 0-33-34 0z m34-33l33 0 0-34-33 0z"/>
<glyph unicode="&#81;" d="M429 102c-46 0-83 37-83 83 0 46 37 83 83 83 46 0 83-37 83-83 0-46-37-83-83-83z m0 145c-34 0-62-28-62-62 0-34 28-62 62-62 34 0 62 28 62 62 0 34-28 62-62 62z m-300-145c-46 0-83 37-83 83 0 46 37 83 83 83 46 0 83-37 83-83 0-46-37-83-83-83z m0 145c-34 0-62-28-62-62 0-34 28-62 62-62 34 0 62 28 62 62 0 34-28 62-62 62z m123-67c0 0-1 0-2 0-5 1-8 5-8 10-8 81-66 102-74 105l-100 0c-6 0-10 5-10 11 0 6 4 10 10 10l101 0c1 0 2 0 3 0 3-1 67-18 86-97l89 134c4 5 10 6 15 3 5-3 6-10 3-15l-104-156c-2-3-5-5-9-5z m177-6c-4 0-8 3-10 7l-86 208-36 0c-6 0-11 4-11 10 0 6 5 11 11 11l43 0c4 0 8-3 10-7l89-214c2-5-1-11-6-14-1 0-3-1-4-1z m-238 114c-4 0-9 3-10 7-2 6 1 12 7 14l166 54c5 2 11-1 13-7 2-5-1-11-7-13l-166-55c-1 0-2 0-3 0z m217 59l-27 0c-6 0-10 5-10 11 0 6 4 10 10 10l27 0c6 0 10-4 10-10 0-6-4-11-10-11z m-397-160c-1 0-2 1-2 1-6 1-10 6-9 12 17 94 89 115 92 116 5 1 11-2 13-7 2-6-2-12-7-14-3 0-63-18-77-99-1-5-5-9-10-9z m201 155l-159 0c-6 0-11 5-11 11 0 6 5 11 11 11l159 0c6 0 11-5 11-11 0-6-5-11-11-11z"/>
<glyph unicode="&#82;" d="M144 37c-2 0-4 1-6 2-54 37-86 94-86 154 0 12 3 38 6 65 4 26 7 52 7 63 0 105 86 191 191 191 105 0 191-86 191-191 0-11 3-37 7-63 3-27 6-53 6-65 0-60-32-117-86-154-4-2-8-3-11-1-4 2-6 6-6 10l0 8c0 26-21 48-48 48l-106 0c-27 0-48-22-48-48l0-8c0-4-2-8-6-10-1-1-3-1-5-1z m112 454c-94 0-170-77-170-170 0-12-3-38-7-66-3-25-6-52-6-62 0-47 23-92 62-125 6 32 34 57 68 57l106 0c34 0 62-25 68-57 39 33 62 78 62 125 0 10-3 37-6 63-4 27-7 53-7 65 0 93-76 170-170 170z m78-243l-156 0c-35 0-63 28-63 63l0 36c0 35 28 64 63 64l156 0c35 0 63-29 63-64l0-36c0-35-28-63-63-63z m-156 141c-23 0-42-19-42-42l0-36c0-23 19-42 42-42l156 0c23 0 42 19 42 42l0 36c0 23-19 42-42 42z m-21-211c0-11-9-20-19-20-11 0-20 9-20 20 0 11 9 19 20 19 10 0 19-8 19-19z m237 0c0-11-9-20-20-20-10 0-19 9-19 20 0 11 9 19 19 19 11 0 20-8 20-19z m-92-11l-92 0c-6 0-10 5-10 11 0 6 4 11 10 11l92 0c6 0 10-5 10-11 0-6-4-11-10-11z m9-117l-110 0c-6 0-11 5-11 11 0 6 5 10 11 10l110 0c6 0 11-4 11-10 0-6-5-11-11-11z m-55-50c-6 0-11 5-11 11l0 43c0 6 5 10 11 10 6 0 11-4 11-10l0-43c0-6-5-11-11-11z"/>
<glyph unicode="&#83;" d="M456 146l-435 0c-6 0-11 5-11 11l0 225c0 6 5 10 11 10l253 0c42 0 98-7 129-25 46-27 106-118 100-171-2-16-28-38-40-47-2-2-4-3-7-3z m-425 22l422 0c14 12 28 26 29 31 4 43-50 126-90 149-23 14-71 23-118 23l-243 0z m124 216c-2 0-4 0-6 1l-62 36c-4 2-6 5-6 9 0 4 2 8 6 10l62 35c4 2 8 2 11 0l63-36c3-1 5-5 5-9 0-4-2-7-5-9l-63-36c-2-1-3-1-5-1z m-41 46l41-23 41 23-41 24z m387-395l-490 0c-6 0-11 5-11 11 0 6 5 11 11 11l490 0c6 0 11-5 11-11 0-6-5-11-11-11z m-234 247l-246 0c-6 0-11 5-11 11 0 6 5 11 11 11l246 0c6 0 11-5 11-11 0-6-5-11-11-11z m112 0c-15 0-26 0-27 0-6 1-10 6-10 12 1 6 6 10 12 10 18-2 72-2 93 8 6 3 12 1 15-5 2-5 0-11-5-14-20-9-54-11-78-11z m-302-190l-47 0c-6 0-11 5-11 11 0 6 5 11 11 11l47 0c6 0 11-5 11-11 0-6-5-11-11-11z m133 0l-47 0c-6 0-11 5-11 11 0 6 5 11 11 11l47 0c6 0 11-5 11-11 0-6-5-11-11-11z m133 0l-47 0c-6 0-11 5-11 11 0 6 5 11 11 11l47 0c6 0 11-5 11-11 0-6-5-11-11-11z m133 0l-47 0c-6 0-11 5-11 11 0 6 5 11 11 11l47 0c6 0 11-5 11-11 0-6-5-11-11-11z"/>
<glyph unicode="&#84;" d="M469 7l-279 0c-24 0-44 20-44 44l0 7c0 24 20 44 44 44l279 0c24 0 43-20 43-44l0-7c0-12-5-23-13-31-8-8-19-13-30-13z m-279 74c-12 0-22-10-22-23l0-7c0-13 10-22 22-22l279 0c12 0 22 9 22 22l0 7c0 13-10 23-22 23z m108 44l-81 0c-28 0-50 22-50 49l0 131c0 28 22 50 50 50l67 0c27 0 49-22 50-49l13-132c0-27-22-49-49-49z m-81 209c-16 0-29-13-29-29l0-131c0-15 13-28 29-28l81 0c15 0 28 13 28 28l-14 131c0 16-12 29-28 29l-67 0z m275-216c-6 0-11 5-11 11l0 95c0 15-13 28-28 28l-120 0c-6 0-11 5-11 11 0 6 5 10 11 10l120 0c27 0 49-22 49-49l0-95c0-6-4-11-10-11z m-45 134c-2 0-5 1-7 3l-224 222c-5 5-11 7-17 6-6 0-12-4-16-10l-107-162c-3-5-10-7-15-3-5 3-6 10-3 14l107 163c8 11 19 18 31 20 13 1 25-4 35-13l224-222c4-4 4-11 0-15-2-2-5-3-8-3z m-342-116c-64 0-98 46-104 93-6 47 16 86 55 96 5 2 10-1 12-6l65-167c2-3 1-7 0-10-2-3-5-4-8-5-7-1-13-1-20-1z m-53 165c-25-12-33-43-30-69 5-38 34-77 86-75z"/>
<glyph unicode="&#85;" d="M501 105l-38 0c-6 0-11 5-11 10 0 6 5 11 11 11l38 0c6 0 11-5 11-11 0-5-5-10-11-10z m-171-10l-137 0c-6 0-11 5-11 11 0 6 5 10 11 10l137 0c6 0 11-4 11-10 0-6-5-11-11-11z m-270 0l-49 0c-6 0-11 5-11 11l0 169c0 4 2 7 5 9l282 193c3 2 8 3 11 1 4-2 6-6 6-10l0-277 21 0 0 182c0 6 4 10 10 11 3 0 76 9 128-37 33-29 49-71 49-127l0-105c0-5-5-10-11-10-6 0-10 5-10 10l0 105c0 49-14 87-42 111-34 31-82 33-102 32l0-183c0-6-5-10-11-10l-43 0c-6 0-10 4-10 10l0 268-262-178 0-154 39 0c6 0 11-4 11-10 0-6-5-11-11-11z m122 122c-3 0-6 1-8 3l-64 59c-5 4-5 11-1 15 4 5 11 5 15 1l65-59c4-4 4-11 0-15-2-3-5-4-7-4z m57 30c-2 0-5 1-7 3l-64 59c-5 4-5 11-1 15 4 4 11 5 15 1l65-60c4-4 4-10 0-15-2-2-5-3-8-3z m-113-214c-37 0-67 30-67 67 0 36 30 66 67 66 36 0 66-30 66-66 0-37-30-67-66-67z m0 112c-25 0-45-21-45-45 0-25 20-46 45-46 25 0 45 21 45 46 0 24-20 45-45 45z m270-112c-36 0-66 30-66 67 0 36 30 66 66 66 37 0 67-30 67-66 0-37-30-67-67-67z m0 112c-25 0-45-21-45-45 0-25 20-46 45-46 25 0 45 21 45 46 1 24-20 45-45 45z"/>
<glyph unicode="&#86;" d="M236 115c-4 0-8 2-9 6-14 27-49 55-77 77-4 4-8 7-11 10-41 33-64 81-64 131 0 96 81 173 181 173 6 0 11-5 11-11 0-6-5-10-11-10-88 0-160-68-160-152 0-44 20-86 56-115 4-3 8-6 12-9 29-24 67-53 82-85 2-5 0-11-5-14-2-1-3-1-5-1z m40 0c-2 0-3 0-5 1-5 3-7 9-5 14 15 32 53 61 82 85 5 3 8 6 12 9 36 29 56 71 56 115 0 41-17 79-47 107-30 29-70 45-113 45-6 0-11 4-11 10 0 6 5 11 11 11 48 0 94-18 128-50 34-33 53-76 53-123 0-50-23-98-63-131-4-3-8-6-12-10-28-22-63-50-77-77-1-4-5-6-9-6z m-28-5c-6 0-10 4-11 10-3 32-24 84-24 84-91 194 27 299 28 300 4 4 11 4 15-1 4-4 3-11-1-15-5-4-107-96-23-275 1-3 23-56 26-91 1-6-3-12-9-12-1 0-1 0-1 0z m16 0c0 0 0 0-1 0-6 0-10 6-9 12 3 35 25 88 26 91 84 180-22 274-23 275-4 4-5 11-1 15 4 5 11 5 15 1 1-1 119-106 28-300 0 0-21-52-24-84-1-6-5-10-11-10z m41-110l-98 0c-6 0-11 5-11 11l0 68c0 6 5 11 11 11l98 0c6 0 11-5 11-11l0-68c0-6-5-11-11-11z m-87 21l76 0 0 47-76 0z"/>
<glyph unicode="&#87;" d="M60 120l-49 0c-6 0-11 4-11 10l0 125c0 2 1 4 2 5l73 121c2 3 6 5 9 5l87 0c6 0 11-5 11-10 0-6-5-11-11-11l-81 0-69-113 0-111 39 0c5 0 10-5 10-11 0-6-5-10-10-10z m280 0l-126 0c-6 0-11 4-11 10 0 6 5 11 11 11l126 0c6 0 11-5 11-11 0-6-5-10-11-10z m104 98c-6 0-11 5-11 11l0 92c0 6 5 10 11 10 6 0 10-4 10-10l0-92c0-6-4-11-10-11z m-172-38c-3 0-6 0-9 1-17 5-25 20-25 22l-75 219-128 0c-6 0-11 5-11 11 0 6 5 11 11 11l136 0c5 0 9-3 10-8l10-29 0 20 269 0c27 0 44-7 50-20 8-17-8-36-9-38-1-1-1-1-1-1-7-6-159-149-195-176-12-8-23-12-33-12z m-15 31c1-1 5-8 11-9 8-2 18 3 24 7 35 26 183 165 193 174 3 4 7 12 5 15 0 1-4 7-30 7l-268 0z m158-143c-47 0-86 39-86 86 0 47 39 86 86 86 47 0 86-39 86-86 0-47-39-86-86-86z m0 150c-36 0-64-29-64-64 0-36 28-64 64-64 35 0 64 28 64 64 0 35-29 64-64 64z m-276-150c-47 0-86 39-86 86 0 47 39 86 86 86 47 0 86-39 86-86 0-47-39-86-86-86z m0 150c-36 0-64-29-64-64 0-36 28-64 64-64 35 0 64 28 64 64 0 35-29 64-64 64z m72 50l-176 0c-6 0-11 5-11 11 0 6 5 10 11 10l176 0c6 0 11-4 11-10 0-6-5-11-11-11z m93 14c-4 0-8 3-10 7l-27 68c-2 6 0 12 6 14 5 2 12-1 14-6l27-68c2-5-1-12-6-14-1 0-3-1-4-1z m58 39c-4 0-8 3-10 6l-13 29c-3 6-1 12 5 15 5 2 11 0 14-5l14-29c2-6 0-12-5-15-2 0-3-1-5-1z"/>
<glyph unicode="&#88;" d="M464 133l-36 0c-6 0-11 5-11 11 0 5 5 10 11 10l36 0c15 0 27 13 27 28 0 16-18 50-44 72l-134 116c-24 20-71 38-103 38l-137 0c-28 0-52-24-52-52l0-150c0-32 10-51 15-52l24 0c6 0 11-5 11-10 0-6-5-11-11-11l-24 0c-24 0-36 37-36 73l0 150c0 40 33 73 73 73l137 0c37 0 89-19 117-43l134-116c29-25 51-63 51-88 0-27-21-49-48-49z m-158 0l-139 0c-5 0-10 5-10 11 0 5 5 10 10 10l139 0c6 0 10-5 10-10 0-6-4-11-10-11z m-190-50c-33 0-60 27-60 60 0 33 27 60 60 60 33 0 60-27 60-60 0-33-27-60-60-60z m0 99c-22 0-39-18-39-39 0-21 17-39 39-39 21 0 38 18 38 39 0 21-17 39-38 39z m250-99c-33 0-60 27-60 60 0 33 27 60 60 60 33 0 60-27 60-60 0-33-27-60-60-60z m0 99c-21 0-38-18-38-39 0-21 17-39 38-39 22 0 39 18 39 39 0 21-17 39-39 39z m88 67l-435 0c-6 0-11 5-11 11 0 6 5 11 11 11l435 0c6 0 11-5 11-11 0-6-5-11-11-11z"/>
<glyph unicode="&#89;" d="M424 72l-336 0c-44 0-80 34-80 75l0 167c0 41 36 75 80 75l336 0c44 0 80-34 80-75l0-167c0-41-36-75-80-75z m-336 296c-32 0-59-24-59-54l0-167c0-29 27-53 59-53l336 0c32 0 59 24 59 53l0 167c0 30-27 54-59 54z m51-341c0 13-10 24-22 24-13 0-23-11-23-24 0-12 10-23 23-23 12 0 22 11 22 23z m58 0c0 13-10 24-23 24-12 0-22-11-22-24 0-12 10-23 22-23 13 0 23 11 23 23z m163 0c0 13-10 24-22 24-13 0-23-11-23-24 0-12 10-23 23-23 12 0 22 11 22 23z m58 0c0-12-10-23-23-23-12 0-22 11-22 23 0 13 10 24 22 24 13 0 23-11 23-24z m-200 131l-124 0c-6 0-10 5-10 11l0 143c0 6 4 11 10 11l124 0c6 0 10-5 10-11l0-143c0-6-4-11-10-11z m-113 21l102 0 0 123-102 0z m313-21l-124 0c-5 0-10 5-10 11l0 143c0 6 5 11 10 11l124 0c6 0 11-5 11-11l0-143c0-6-5-11-11-11z m-113 21l102 0 0 123-102 0z m-49 189c-2 0-4 0-5 1l-104 58c-4 2-6 6-6 9 0 4 2 8 6 10l104 58c3 2 7 2 10 0l104-58c4-2 6-6 6-10 0-3-2-7-6-9l-104-58c-1-1-3-1-5-1z m-82 68l82-46 82 46-82 47z"/>
<glyph unicode="&#90;" d="M166 125c-6 0-11 4-11 10l0 196c-22 1-74 0-107-29-18-16-27-39-27-68l0-99c0-6-4-10-10-10-6 0-11 4-11 10l0 99c0 36 12 64 34 84 48 43 129 34 133 34l9-1 0-216c0-6-4-10-10-10z m139 0l-127 0c-5 0-10 4-10 10 0 6 5 11 10 11l127 0c6 0 11-5 11-11 0-6-5-10-11-10z m166 0l-63 0c-6 0-11 4-11 10 0 6 5 11 11 11l63 0c6 0 11-5 11-11 0-6-5-10-11-10z m-120-46c-31 0-56 26-56 57 0 31 25 57 56 57 16 0 30-6 41-17 10-11 16-25 16-40 0-31-25-57-57-57z m0 92c-19 0-35-16-35-35 0-20 16-35 35-35 20 0 36 15 36 35 0 19-16 35-36 35z m-263-92c-31 0-57 26-57 57 0 31 26 57 57 57 15 0 30-6 40-17 11-11 17-25 17-40 0-31-26-57-57-57z m0 92c-19 0-35-16-35-35 0-20 16-35 35-35 20 0 36 15 36 35 0 19-16 35-36 35z m225 16c-53 0-100 37-115 90-9 33-5 66 11 95 15 27 39 46 68 54 16 4 38 7 63 7 56 0 155-15 170-69 5-16 1-34-10-54-30-54-113-107-157-119-10-2-20-4-30-4z m27 224c-23 0-43-2-57-6-23-6-43-22-55-43-14-24-17-52-9-79 12-44 51-75 94-75 8 0 17 2 25 4 39 11 117 61 144 109 8 14 10 27 8 37-10 35-83 53-150 53z"/>
<glyph unicode="&#48;" d="M99 288l157 0 0-21-157 0z m243-21l-36 0c-6 0-11 5-11 11 0 5 5 10 11 10l23 0-5 25-76 13c-5 1-9 7-8 13 1 5 6 9 12 8l83-14c4-1 8-4 9-9l9-44c0-4-1-7-3-9-2-3-5-4-8-4z m-293 0l-25 0c-6 0-11 5-11 11l0 51c0 5 3 9 8 11l28 7c5 1 11-2 13-8 1-5-2-11-8-13l-19-5 0-33 14 0c6 0 11-5 11-10 0-6-5-11-11-11z m201 59c-2 0-4 0-5 2l-73 44-76 0-37-42c-3-5-10-5-15-1-4 3-5 10-1 15l40 46c2 2 5 3 8 3l84 0c2 0 4 0 5-1l76-46c5-3 6-10 3-15-2-3-5-5-9-5z m31-100c-21 0-38 18-38 39 0 21 17 38 38 38 21 0 39-17 39-38 0-21-18-39-39-39z m0 56c-9 0-17-8-17-17 0-10 8-17 17-17 10 0 17 7 17 17 0 9-7 17-17 17z m-207-56c-21 0-38 18-38 39 0 21 17 38 38 38 21 0 39-17 39-38 0-21-18-39-39-39z m0 56c-9 0-17-8-17-17 0-10 8-17 17-17 10 0 17 7 17 17 0 9-7 17-17 17z m424-117l-18 0c-6 0-11 5-11 11 0 5 5 10 11 10l9 0c8 50-15 98-23 113l-61 0 0-92c0-6-5-11-10-11l-384 0c-6 0-11 5-11 11 0 5 5 10 11 10l373 0 0 93c0 6 5 11 11 11l78 0c3 0 7-2 9-5 2-3 42-72 26-143-1-5-5-8-10-8z m-2 67l-95 0c-6 0-10 5-10 11 0 6 4 11 10 11l95 0c5 0 10-5 10-11 0-6-5-11-10-11z m-48-113c-23 0-43 19-43 43 0 24 20 44 43 44 24 0 44-20 44-44 0-24-20-43-44-43z m0 65c-12 0-22-10-22-22 0-12 10-22 22-22 13 0 23 10 23 22 0 12-10 22-23 22z m-386-65c-24 0-43 19-43 43 0 24 19 44 43 44 24 0 43-20 43-44 0-24-19-43-43-43z m0 65c-12 0-22-10-22-22 0-12 10-22 22-22 12 0 22 10 22 22 0 12-10 22-22 22z m104-65c-24 0-44 19-44 43 0 24 20 44 44 44 24 0 43-20 43-44 0-24-19-43-43-43z m0 65c-13 0-22-10-22-22 0-12 9-22 22-22 12 0 22 10 22 22 0 12-10 22-22 22z"/>
<glyph unicode="&#49;" d="M360 77l-276 0c-46 0-84 37-84 83 0 45 38 83 84 83l276 0c46 0 84-38 84-83 0-46-38-83-84-83z m-276 144c-34 0-63-27-63-61 0-34 29-62 63-62l276 0c35 0 63 28 63 62 0 34-28 61-63 61z m26-61c0-13-10-23-23-23-13 0-23 10-23 23 0 13 10 23 23 23 13 0 23-10 23-23z m135 0c0-13-10-23-23-23-13 0-23 10-23 23 0 13 10 23 23 23 13 0 23-10 23-23z m135 0c0-13-10-23-23-23-12 0-23 10-23 23 0 13 11 23 23 23 13 0 23-10 23-23z m-1 61c-6 0-11 5-11 11 0 51-34 56-35 57-4 0-7 3-8 7l-38 118-128 0-30-112c-1-4-6-8-10-8-13 0-22-3-29-11-16-17-14-50-14-50 1-6-4-11-10-12-5 0-11 4-11 10 0 2-3 42 19 67 10 10 22 16 36 17l30 112c2 5 6 8 11 8l144 0c4 0 9-3 10-7l38-120c19-6 47-27 47-76 0-6-5-11-11-11z m122 146l-183 0c-6 0-11 4-11 10 0 6 5 11 11 11l183 0c6 0 11-5 11-11 0-6-5-10-11-10z"/>
<glyph unicode="&#50;" d="M229 62c-44 0-79 52-79 117 0 66 35 118 79 118 45 0 80-52 80-118 0-65-35-117-80-117z m0 213c-31 0-58-44-58-96 0-51 27-95 58-95 32 0 59 44 59 95 0 52-27 96-59 96z m12-213c-5 0-9 4-10 9-1 6 2 11 8 13l224 42c22 30 31 59 26 87-6 39-37 65-46 73l-194-11c-6 0-11 4-12 10 0 6 5 11 11 12l197 10c3 0 5 0 7-2 2-1 49-33 59-88 5-35-6-71-34-107-1-2-4-4-6-4l-228-43c-1-1-1-1-2-1z m-199 56c-24 0-42 32-42 75 0 43 18 75 42 75 13 0 24-8 32-25 6-13 10-31 10-50 0-43-18-75-42-75z m0 129c-8 0-21-21-21-54 0-32 13-54 21-54 8 0 20 22 20 54 0 33-12 54-20 54z m-15 4c-1 0-2 1-3 1-6 1-9 7-8 13 1 2 15 63 61 85l0 58c0 5 2 9 7 10l85 31c1 1 3 1 4 1l126-11c3 0 6-2 8-4 2-3 48-68 67-132 1-6-2-12-8-13-5-2-11 1-13 7-15 52-50 106-61 121l-118 10-76-27 0-58c0-4-3-8-7-10-40-14-54-73-54-73-1-5-6-9-10-9z m168 16c-1 0-1 0-2 1-6 1-10 6-9 12 15 76-18 146-18 146-3 6-1 12 5 15 5 2 11 0 14-5 1-3 36-77 20-160-1-5-5-9-10-9z m-35-133c0 0-1 0-2 0l-87 15c-5 1-9 6-8 12 1 6 6 10 12 9l87-15c6-1 10-7 9-12-1-6-6-9-11-9z"/>
<glyph unicode="&#51;" d="M408 36c-57 0-103 47-103 104 0 57 46 103 103 103 57 0 104-46 104-103 0-57-47-104-104-104z m0 186c-45 0-82-37-82-82 0-46 37-83 82-83 46 0 83 37 83 83 0 45-37 82-83 82z m-304-186c-57 0-104 47-104 104 0 57 47 104 104 104 57 0 103-47 103-104 0-57-46-104-103-104z m0 186c-46 0-83-37-83-82 0-46 37-83 83-83 45 0 82 37 82 83 0 45-37 82-82 82z m144-131c-2 0-3 0-4 1-6 2-8 8-6 14 2 3 36 87-75 168-4 3-5 7-4 12 2 4 33 91 100 96 5 0 10-4 11-9 0-1 4-26 28-41 23-15 56-17 99-6 6 2 12-2 13-7 2-6-2-12-7-13-50-13-89-11-117 8-21 14-31 33-34 45-38-9-62-55-70-73 118-90 76-188 76-189-2-4-6-6-10-6z m99 334c0-22-18-40-40-40-22 0-40 18-40 40 0 22 18 40 40 40 22 0 40-18 40-40z m53-203c-5 0-10 3-11 9l-7 40c-1 5 3 11 9 12 6 1 11-3 12-9l7-40c1-6-3-11-8-12-1 0-2 0-2 0z"/>
<glyph unicode="&#52;" d="M437 12l-335 0c-3 0-6 2-8 4l-92 114c-3 3-3 9 0 13 3 3 8 5 13 3 85-33 176-50 270-50 125 0 212 30 213 30 4 2 9 0 12-4 3-3 3-8 0-12l-64-93c-2-3-5-5-9-5z m-330 22l325 0 44 63c-37-9-104-23-191-23-84 0-165 13-242 39z m149 41c-6 0-11 5-11 11l0 403c0 6 5 11 11 11 6 0 11-5 11-11l0-403c0-6-5-11-11-11z m176 21c-3 0-6 1-8 3-4 5-4 11 1 15 50 48 71 97 61 144-21 104-181 177-223 195-20-58-112-316-225-337-6-1-11 3-12 9-1 6 2 11 8 12 113 21 211 330 212 333 1 3 3 6 5 7 3 1 6 1 9 0 9-3 220-84 247-215 11-55-12-110-68-163-2-2-4-3-7-3z"/>
<glyph unicode="&#53;" d="M447 60c-36 0-66 29-66 65 0 36 30 66 66 66 36 0 65-30 65-66 0-36-29-65-65-65z m0 109c-24 0-44-20-44-44 0-24 20-44 44-44 24 0 44 20 44 44 0 24-20 44-44 44z m-382-109c-36 0-65 29-65 65 0 36 29 65 65 65 36 0 65-29 65-65 0-36-29-65-65-65z m0 109c-24 0-44-20-44-44 0-24 20-44 44-44 24 0 44 20 44 44 0 24-20 44-44 44z m328 43c-4 0-8 3-10 7l-77 197-32-15c-5-3-12 0-14 5-3 5 0 12 5 14l42 20c3 2 6 2 9 1 2-1 4-4 6-6l81-208c2-6 0-12-6-14-1 0-2-1-4-1z m-44-87c0 0 0 0 0 0-6 0-10 5-10 11 1 37 12 64 33 81 33 25 75 17 77 16 6-1 9-7 8-12-1-6-7-10-12-9-1 1-35 7-60-12-16-13-24-35-25-65 0-6-5-10-11-10z m-3 15l-183 0c-4 0-9 4-10 9 0 0-10 40-41 57-17 10-38 10-62 2-5-1-11 2-13 7-2 6 1 12 6 14 30 10 57 8 79-4 30-17 44-48 49-63l175 0c6 0 10-5 10-11 0-6-4-11-10-11z m-215 55c-4 0-8 2-10 6-2 6 1 12 6 14 2 1 42 18 34 63-1 6 3 11 8 12 6 2 12-2 13-8 9-50-27-78-47-87-1 0-2 0-4 0z m105 82l-135 0c-5 0-9 4-10 8l-36 154c-1 6 2 11 8 13 6 1 11-3 13-8l34-145 126 0c6 0 11-5 11-11 0-6-5-11-11-11z m-40 68l-104 0c-6 0-11 4-11 10 0 6 5 11 11 11l104 0c6 0 11-5 11-11 0-6-5-10-11-10z"/>
<glyph unicode="&#54;" d="M439 0c-41 0-74 33-74 73 0 41 33 74 74 74 40 0 73-33 73-74 0-40-33-73-73-73z m0 126c-29 0-52-24-52-53 0-28 23-52 52-52 28 0 52 24 52 52 0 29-24 53-52 53z m-366-126c-40 0-73 33-73 73 0 41 33 74 73 74 41 0 74-33 74-74 0-40-33-73-74-73z m0 126c-28 0-52-24-52-53 0-28 24-52 52-52 29 0 52 24 52 52 0 29-23 53-52 53z m338 42l-338 0c-5 0-10 5-10 11 0 6 5 10 10 10l325 0-53 282c-11 9-29 20-37 20-6 0-11 4-11 10 0 6 5 11 11 11 20 0 48-23 54-27 2-2 3-4 3-7l56-297c1-4 0-7-2-9-2-3-5-4-8-4z"/>
<glyph unicode="&#55;" d="M498 158l-17 0c-6 0-11 5-11 11 0 6 5 10 11 10l8 0c7 46-13 89-21 104l-55 0 0-86c0-5-5-10-11-10l-357 0c-6 0-10 5-10 10 0 6 4 11 10 11l346 0 0 86c0 6 5 10 11 10l73 0c3 0 7-2 9-5 1-2 39-66 25-133-1-5-6-8-11-8z m-2 63l-88 0c-5 0-10 4-10 10 0 6 5 11 10 11l88 0c6 0 11-5 11-11 0-6-5-10-11-10z m-44-106c-22 0-41 19-41 41 0 23 19 41 41 41 23 0 41-18 41-41 0-22-18-41-41-41z m0 61c-11 0-20-9-20-20 0-11 9-20 20-20 11 0 20 9 20 20 0 11-9 20-20 20z m-359-61c-23 0-41 19-41 41 0 23 18 41 41 41 23 0 41-18 41-41 0-22-18-41-41-41z m0 61c-11 0-20-9-20-20 0-11 9-20 20-20 11 0 20 9 20 20 0 11-9 20-20 20z m98-61c-23 0-42 19-42 41 0 23 19 41 42 41 22 0 41-18 41-41 0-22-19-41-41-41z m0 61c-11 0-20-9-20-20 0-11 9-20 20-20 10 0 19 9 19 20 0 11-9 20-19 20z m140 59l-301 0c-3 0-6 1-8 3-29 35-29 85 0 119 2 2 5 4 8 4l301 0c3 0 6-2 8-4 30-34 30-84 0-119-2-2-5-3-8-3z m-296 21l291 0c19 25 19 59 0 83l-291 0c-18-24-18-58 0-83z m209 91c-6 0-11 4-11 10l0 29c0 6 5 11 11 11 6 0 11-5 11-11l0-29c0-6-5-10-11-10z m-110 0c-6 0-11 4-11 10l0 29c0 6 5 11 11 11 5 0 10-5 10-11l0-29c0-6-5-10-10-10z"/>
<glyph unicode="&#56;" d="M93 235c-4 0-7 2-9 5-3 5-2 11 3 15l142 96c15 11 39 11 53 1l143-97c5-3 6-9 3-14-3-5-10-7-15-3l-142 96c-8 5-22 5-30 0l-142-97c-2-1-4-2-6-2z m408-235l-490 0c-6 0-11 5-11 11l0 227c0 6 5 11 11 11l490 0c6 0 11-5 11-11l0-227c0-6-5-11-11-11z m-480 21l470 0 0 207-470 0z m49-21c-5 0-10 5-10 11l0 227c0 6 5 11 10 11 6 0 11-5 11-11l0-227c0-6-5-11-11-11z m62 0c-6 0-10 5-10 11l0 227c0 6 4 11 10 11 6 0 11-5 11-11l0-227c0-6-5-11-11-11z m62 0c-6 0-11 5-11 11l0 227c0 6 5 11 11 11 6 0 11-5 11-11l0-227c0-6-5-11-11-11z m62 0c-6 0-11 5-11 11l0 227c0 6 5 11 11 11 6 0 11-5 11-11l0-227c0-6-5-11-11-11z m62 0c-6 0-11 5-11 11l0 227c0 6 5 11 11 11 6 0 11-5 11-11l0-227c0-6-5-11-11-11z m62 0c-6 0-11 5-11 11l0 227c0 6 5 11 11 11 6 0 10-5 10-11l0-227c0-6-4-11-10-11z m62 0c-6 0-11 5-11 11l0 227c0 6 5 11 11 11 5 0 10-5 10-11l0-227c0-6-5-11-10-11z m-186 338c-6 0-11 4-11 10l0 56c0 6 5 10 11 10 6 0 11-4 11-10l0-56c0-6-5-10-11-10z m0 42c-28 0-50 23-50 50l0 71c0 6 5 11 11 11 6 0 10-5 10-11l0-71c0-16 13-28 29-28 15 0 28 12 28 28 0 6 4 11 10 11 6 0 11-5 11-11 0-27-22-50-49-50z"/>
<glyph unicode="&#57;" d="M443 123c-39 0-70 31-70 70 0 38 31 69 70 69 38 0 69-31 69-69 0-39-31-70-69-70z m0 118c-27 0-48-22-48-48 0-27 21-48 48-48 26 0 48 21 48 48 0 26-22 48-48 48z m-288-118c-38 0-69 31-69 70 0 38 31 69 69 69 38 0 69-31 69-69 0-39-31-70-69-70z m0 118c-27 0-48-22-48-48 0-27 21-48 48-48 26 0 48 21 48 48 0 26-22 48-48 48z m343 68l-372 0c-72 0-122 60-124 62-3 5-3 12 2 15 5 4 11 3 15-1 0-1 45-55 107-55l372 0c6 0 11-5 11-11 0-6-5-10-11-10z"/>
<glyph unicode="&#33;" d="M69 60c-38 0-69 31-69 69 0 38 31 69 69 69 38 0 69-31 69-69 0-38-31-69-69-69z m0 117c-26 0-48-21-48-48 0-26 22-47 48-47 26 0 48 21 48 47 0 27-22 48-48 48z m283-117c-38 0-69 31-69 69 0 38 31 69 69 69 38 0 69-31 69-69 0-38-31-69-69-69z m0 117c-26 0-47-21-47-48 0-26 21-47 47-47 27 0 48 21 48 47 0 27-21 48-48 48z m-132-11c-4 0-6 0-8 0l-1 0c-133 0-136 235-136 245 0 5 4 10 9 11l126 29c1 1 3 1 5 0l126-36c5-1 8-5 8-11-15-221-103-238-129-238z m-7 21c1 0 1 0 2 0 0 0 2 0 5 0 21 0 92 15 107 210l-115 33-115-27c2-41 15-216 114-216l2 0c0 0 0 0 0 0z m202 38l-108 0c-6 0-11 5-11 11 0 6 5 11 11 11l104 0 83 72c5 4 12 4 15-1 4-4 4-11-1-15l-86-75c-2-2-5-3-7-3z m-238 61c-6 0-11 5-11 11l0 64c0 6 5 10 11 10 6 0 11-4 11-10l0-64c0-6-5-11-11-11z m70 0c-6 0-10 5-10 11l0 64c0 6 4 10 10 10 6 0 11-4 11-10l0-64c0-6-5-11-11-11z m-134-61l-91 0c-6 0-11 5-11 11 0 6 5 11 11 11l91 0c6 0 11-5 11-11 0-6-5-11-11-11z"/>
<glyph unicode="&#34;" d="M423 184c-1 0-3 0-4 1l-208 77c-4 2-7 6-7 10l0 150-27 18c-5 4-6 10-3 15 4 5 10 6 15 3l32-21c3-2 5-5 5-9l0-1 279-101c3-2 5-4 6-7 1-3 1-7-1-9l-78-121c-2-3-6-5-9-5z m-197 96l193-72 66 102-259 94 0-124z m241 38c-4 0-8 1-10 5l-66 110-134-29c-6-1-12 2-13 8-1 6 2 11 8 13l142 30c5 1 9-1 12-5l70-116c3-5 1-12-4-15-2-1-4-1-5-1z m-372-234l-84 0c-6 0-11 5-11 11l0 85c0 80 66 136 69 138 1 2 4 3 6 3l93 0c6 0 11-5 11-11l0-159c0-6-5-10-11-10-6 0-11 4-11 10l0 148-77 0c-12-11-59-58-59-119l0-74 74 0c6 0 10-5 10-11 0-6-4-11-10-11z m45-32c-29 0-53 24-53 54 0 29 24 53 53 53 30 0 54-24 54-53 0-30-24-54-54-54z m0 86c-17 0-32-15-32-32 0-18 15-33 32-33 18 0 33 15 33 33 0 17-15 32-33 32z m227-86c-30 0-54 24-54 54 0 29 24 53 54 53 29 0 53-24 53-53 0-30-24-54-53-54z m0 86c-18 0-33-15-33-32 0-18 15-33 33-33 17 0 32 15 32 33 0 17-15 32-32 32z m-14 0l-185 0c-6 0-11 4-11 10 0 6 5 11 11 11l185 0c6 0 11-5 11-11 0-6-5-10-11-10z m148-54l-92 0c-6 0-10 5-10 11 0 6 4 11 10 11l82 0 0 32-106 0c-6 0-11 4-11 10 0 6 5 11 11 11l116 0c6 0 11-5 11-11l0-53c0-6-5-11-11-11z m-177 0l-137 0c-6 0-11 5-11 11 0 6 5 11 11 11l137 0c6 0 10-5 10-11 0-6-4-11-10-11z m-156 100l-156 0c-6 0-11 5-11 11 0 6 5 10 11 10l156 0c6 0 11-4 11-10 0-6-5-11-11-11z"/>
<glyph unicode="&#35;" d="M84 193c-44 0-71 12-81 34-13 32 16 76 81 122 5 4 11 2 15-2 3-5 2-12-3-15-53-38-82-76-73-97 7-16 37-23 81-20 49 4 110 20 171 46 62 26 116 58 153 91 33 29 49 56 42 72-9 20-55 26-119 15-5-1-11 3-12 9-1 6 3 11 9 12 77 14 128 4 142-28 11-26-6-59-48-96-39-34-95-68-158-95-64-26-127-43-178-47-8-1-15-1-22-1z m10 62c-5 0-9 3-11 7-22 83 22 172 105 207 22 10 46 14 71 14 62 0 119-32 149-83 3-5 2-11-3-14-40-30-92-58-148-82-56-24-112-41-162-49 0 0-1 0-1 0z m165 207c-22 0-43-4-63-13-69-29-108-102-94-171 45 8 96 24 147 46 51 21 98 47 136 73-28 40-75 65-126 65z m-85-324c-80 0-146 31-170 88-1 0-1 1-1 2-2 5 1 11 6 13 6 2 12-1 14-6 0 0 0-1 1-2 32-77 159-98 283-46 123 52 196 158 164 236 0 0 0 0 0 0-1 0-1 0-1 1-2 5 0 11 5 14 6 2 12 0 15-6 0 0 0 0 0-1 38-89-41-207-175-264-48-20-97-29-141-29z m5-109c0 0 0 0 0 0-6 0-11 5-10 11l7 140c0 6 5 10 11 10 6-1 11-6 10-11l-7-140c0-6-5-10-11-10z m322 136c-2 0-5 0-7 2l-105 92c-4 4-5 11-1 16 4 4 11 4 15 1l105-93c5-4 5-10 1-15-2-2-5-3-8-3z m-343 156c-4 0-8 2-10 6-2 5 0 12 6 14l13 6c6 2 12 0 14-6 3-5 0-12-5-14l-14-6c-1 0-3 0-4 0z m68 28c-4 0-8 3-10 7-2 5 0 11 6 14l13 5c6 3 12 0 14-5 2-6 0-12-5-14l-14-6c-2-1-3-1-4-1z m67 29c-4 0-8 2-9 6-3 6 0 12 5 14l14 6c5 2 12 0 14-6 2-5 0-11-6-14l-13-5c-2-1-3-1-5-1z"/>
<glyph unicode="&#36;" d="M256 0c-80 0-146 65-146 146 0 80 66 145 146 145 80 0 146-65 146-145 0-81-66-146-146-146z m0 270c-69 0-124-56-124-124 0-69 55-125 124-125 69 0 124 56 124 125 0 68-55 124-124 124z m-12 203c-44 0-61 20-62 22-4 4-3 11 2 15 4 3 11 3 15-2 0-1 30-32 119 3 5 2 11 0 13-6 3-5 0-11-5-14-34-13-61-18-82-18z m12-330c-6 0-11 4-11 10l0 320c0 6 5 10 11 10 6 0 11-4 11-10l0-320c0-6-5-10-11-10z m-62-52c-3 0-5 1-7 2l-28 21c-5 4-6 10-2 15 3 5 10 6 15 2l21-16 107 83c4 3 8 3 12 1l38-23c5-3 7-10 3-15-3-5-9-7-14-3l-32 19-107-84c-2-1-4-2-6-2z"/>
<glyph unicode="&#37;" d="M501 114l-289 0c-5 0-9 4-10 9l-72 368-119 0c-6 0-11 4-11 10 0 6 5 11 11 11l128 0c5 0 9-4 10-9l72-367 280 0c6 0 11-5 11-11 0-6-5-11-11-11z m-39 55l-206 0c-6 0-11 4-11 10l0 134c0 6 5 10 11 10l206 0c5 0 10-4 10-10l0-134c0-6-5-10-10-10z m-195 21l184 0 0 112-184 0z m195 167l-206 0c-6 0-11 5-11 11l0 133c0 6 5 11 11 11l206 0c5 0 10-5 10-11l0-133c0-6-5-11-10-11z m-195 22l184 0 0 112-184 0z m211-334c0 20-16 35-35 35-18 0-34-15-34-35 0-19 16-34 34-34 19 0 35 15 35 34z m-197 0c0-19-16-34-35-34-19 0-34 15-34 34 0 20 15 35 34 35 19 0 35-15 35-35z"/>
<glyph unicode="&#38;" d="M287 99c-3 0-6 0-9 1-10 2-19 8-24 17l-134 223c0 1-16 34-41 34l-65 0c-6 0-11 5-11 10 0 6 5 11 11 11l65 0c38 0 59-43 60-45l133-222c3-4 6-6 11-8 4-1 9 0 13 2l184 111c5 3 12 2 15-4 3-5 1-11-4-14l-184-111c-6-4-13-5-20-5z m19 73c-13 0-26 7-33 19l-99 164c-11 18-5 42 13 53l165 99c6 3 12 5 19 5 14 0 27-7 33-19l99-164c5-9 7-19 4-29-2-10-8-18-17-24l-164-98c-6-4-13-6-20-6z m65 319c-3 0-6-1-8-3l-165-98c-8-5-10-16-5-24l98-164c3-5 9-8 15-8 3 0 6 0 9 2l164 99c4 2 7 6 8 10 1 5 0 9-2 13l-99 164c-3 5-9 9-15 9z m-74-491c-32 0-58 26-58 58 0 32 26 58 58 58 32 0 58-26 58-58 0-32-26-58-58-58z m0 95c-20 0-37-17-37-37 0-20 17-37 37-37 20 0 37 17 37 37 0 20-17 37-37 37z"/>
<glyph unicode="&#39;" d="M470 84c-4 0-9 3-10 8l-13 57-54 0 0 72-61 0 0-75-55 0 0-52c0-5-5-10-11-10-5 0-10 5-10 10l0 74 55 0 0 75 103 0 0-73 49 0 18-73c1-6-2-12-8-13-1 0-2 0-3 0z m-21-84l-171 0c-35 0-63 21-63 47 0 27 28 48 63 48l171 0c35 0 63-21 63-48 0-26-28-47-63-47z m-171 74c-22 0-41-13-41-27 0-13 19-26 41-26l171 0c23 0 42 12 42 26 0 15-19 27-42 27z m28 86c-3 0-6 2-8 5l-239 330c-3 5-2 12 3 15 4 3 11 2 14-2l239-331c3-5 2-11-3-15-1-1-4-2-6-2z m-141-82l-154 0c-6 0-11 4-11 10l0 180c0 6 5 10 11 10l154 0c6 0 11-4 11-10l0-180c0-6-5-10-11-10z m-144 21l134 0 0 158-134 0z m8 165c-2 0-5 1-7 3-4 3-5 10-1 15l59 73c4 5 12 5 16 0l59-73c4-5 3-12-1-15-5-4-12-3-15 1l-51 63-51-63c-2-2-5-4-8-4z m59 81c-6 0-11 5-11 11l0 117c0 6 5 11 11 11 6 0 11-5 11-11l0-117c0-6-5-11-11-11z"/>
<glyph unicode="&#40;" d="M424 161c0 0 0 0 0 0-7 0-12 0-12 0l-401 0c-6 0-11 5-11 10l0 330c0 6 5 11 11 11l207 0c3 0 7-2 9-4 2-3 2-6 1-9-8-33-22-89-22-100 0-3-1-5-1-9-2-10-4-24 5-35 11-12 38-27 109-27 108 0 167-44 186-86 11-24 9-48-5-65-4-4-14-16-76-16z m-403 21l391 0c1 0 5 0 12 0 41 0 57 6 60 9 8 10 9 26 1 42-15 34-68 74-166 74-65 0-105 11-125 34-16 19-12 41-10 53 0 2 0 4 0 5 0 14 13 65 20 92l-183 0z m78-182c-38 0-69 32-69 71 0 39 31 70 69 70 39 0 70-31 70-70 0-39-31-71-70-71z m0 120c-26 0-48-22-48-49 0-28 22-50 48-50 27 0 49 22 49 50 0 27-22 49-49 49z m295-120c-39 0-70 32-70 71 0 39 31 70 70 70 38 0 69-31 69-70 0-39-31-71-69-71z m0 120c-27 0-49-22-49-49 0-28 22-50 49-50 26 0 48 22 48 50 0 27-22 49-48 49z"/>
<glyph unicode="&#41;" d="M412 0l-312 0c-2 0-4 1-6 2-60 45-93 104-93 168 0 63 33 123 93 168 2 1 4 2 6 2l312 0c2 0 4-1 6-2 60-45 93-105 93-168 0-64-33-123-93-168-2-1-4-2-6-2z m-308 21l304 0c53 41 82 93 82 149 0 56-29 108-82 148l-304 0c-53-40-82-92-82-148 0-56 29-108 82-149z m-92 389c-5 0-10 4-11 9-1 6 3 11 9 12l489 81c5 1 11-3 12-9 1-6-3-11-9-12l-489-81c0 0-1 0-1 0z m489-251l-490 0c-6 0-11 5-11 11 0 6 5 11 11 11l490 0c6 0 11-5 11-11 0-6-5-11-11-11z m-189 14c-1 0-1 0-2 0-5 1-10 6-9 12 10 83-14 125-15 125-3 5-1 12 4 15 5 3 11 2 14-3 2-2 30-49 18-139 0-6-5-10-10-10z m-69 151c-4 0-7 2-9 6-3 5-1 11 5 14 37 18 58 39 59 58 1 28-33 50-33 50-5 3-6 10-3 15 3 5 9 6 14 3 2-1 45-29 43-69-1-28-25-54-71-76-2-1-3-1-5-1z"/>
<glyph unicode="&#42;" d="M100 133l-89 0c-6 0-11 5-11 11 0 6 5 10 11 10l89 0c6 0 10-4 10-10 0-6-4-11-10-11z m0-44l-89 0c-6 0-11 4-11 10 0 6 5 11 11 11l89 0c6 0 10-5 10-11 0-6-4-10-10-10z m0-45l-89 0c-6 0-11 5-11 11 0 6 5 11 11 11l89 0c6 0 10-5 10-11 0-6-4-11-10-11z m0-44l-89 0c-6 0-11 5-11 11 0 6 5 10 11 10l89 0c6 0 10-4 10-10 0-6-4-11-10-11z m401 133l-89 0c-6 0-10 5-10 11 0 6 4 10 10 10l89 0c6 0 11-4 11-10 0-6-5-11-11-11z m0-44l-89 0c-6 0-10 4-10 10 0 6 4 11 10 11l89 0c6 0 11-5 11-11 0-6-5-10-11-10z m0-45l-89 0c-6 0-10 5-10 11 0 6 4 11 10 11l89 0c6 0 11-5 11-11 0-6-5-11-11-11z m0-44l-89 0c-6 0-10 5-10 11 0 6 4 10 10 10l89 0c6 0 11-4 11-10 0-6-5-11-11-11z m-244 71l-107 0c-6 0-11 5-11 11l0 103-116 0c-6 0-10 4-11 10-10 98 79 229 83 234 2 3 5 5 9 5l153 0c6 0 11-5 11-11 0-6-5-10-11-10l-148 0c-14-23-78-127-76-207l117 0c6 0 10-5 10-10l0-103 97 0c6 0 11-5 11-11 0-6-5-11-11-11z m105 0l-107 0c-6 0-11 5-11 11 0 6 5 11 11 11l97 0 0 103c0 5 4 10 10 10l117 0c2 81-62 184-76 207l-148 0c-6 0-11 4-11 10 0 6 5 11 11 11l153 0c4 0 7-2 9-5 4-5 93-136 83-234-1-6-5-10-11-10l-116 0 0-103c0-6-5-11-11-11z m103 238l-417 0c-6 0-10 5-10 11 0 6 4 11 10 11l417 0c6 0 11-5 11-11 0-6-5-11-11-11z m-111 104l-196 0c-6 0-11 4-11 10l0 78c0 6 5 11 11 11l196 0c6 0 11-5 11-11l0-78c0-6-5-10-11-10z m-185 21l174 0 0 57-174 0z"/>
<glyph unicode="&#43;" d="M256 69c-94 0-171 86-171 191 0 105 77 191 171 191 94 0 171-86 171-191 0-105-77-191-171-191z m0 361c-82 0-149-76-149-170 0-94 67-170 149-170 82 0 149 76 149 170 0 94-67 170-149 170z m141-244l-291 0c-6 0-10 5-10 11 0 5 4 10 10 10l291 0c6 0 11-5 11-10 0-6-5-11-11-11z m-145 0c-6 0-11 5-11 11l0 304c0 6 5 11 11 11 6 0 10-5 10-11l0-304c0-6-4-11-10-11z m-139-186l-39 0c-4 0-7 2-9 6-2 3-2 7 0 11l78 114c3 5 10 6 15 3 5-4 6-10 3-15l-67-98 19 0c6 0 11-4 11-10 0-6-5-11-11-11z m325 0l-39 0c-6 0-11 5-11 11 0 6 5 10 11 10l19 0-67 98c-3 5-2 11 3 15 5 3 12 2 15-3l78-114c2-4 2-8 0-11-2-4-5-6-9-6z m63 480l-490 0c-6 0-11 5-11 11 0 6 5 11 11 11l490 0c6 0 11-5 11-11 0-6-5-11-11-11z"/>
<glyph unicode="&#44;" d="M412 0l-312 0c-3 0-5 1-7 2-60 48-93 111-93 178 0 67 33 130 93 178 2 1 4 2 7 2l312 0c3 0 5-1 7-2 60-48 93-111 93-178 0-67-33-130-93-178-2-1-4-2-7-2z m-309 21l306 0c53 43 82 99 82 159 0 60-29 116-82 159l-306 0c-53-43-82-99-82-159 0-60 29-116 82-159z m218-21l-130 0c-6 0-10 5-10 11l0 112-95 0c-6 0-11 5-11 11l0 134c0 6 5 11 11 11l340 0c6 0 11-5 11-11l0-134c0-6-5-11-11-11l-95 0 0-112c0-6-4-11-10-11z m-119 21l108 0 0 113c0 6 5 10 11 10l94 0 0 114-318 0 0-114 94 0c6 0 11-4 11-10z m54 323c-6 0-11 5-11 11l0 87c0 6 5 10 11 10 6 0 11-4 11-10l0-87c0-6-5-11-11-11z m-245 44c-5 0-10 3-11 8-1 6 3 12 8 13l491 103c6 1 12-3 13-8 1-6-3-12-8-13l-491-103c-1 0-2 0-2 0z"/>
<glyph unicode="&#45;" d="M421 148l-330 0c-4 0-8 3-10 7l-80 212c-2 3-1 7 1 10 2 3 5 4 9 4l490 0c4 0 7-1 9-4 2-3 3-7 1-10l-80-212c-2-4-6-7-10-7z m-323 22l316 0 72 190-460 0z m59-170c-33 0-61 27-61 61 0 34 28 61 61 61 34 0 61-27 61-61 0-34-27-61-61-61z m0 101c-22 0-39-18-39-40 0-22 17-40 39-40 22 0 40 18 40 40 0 22-18 40-40 40z m198-101c-34 0-61 27-61 61 0 34 27 61 61 61 33 0 61-27 61-61 0-34-28-61-61-61z m0 101c-22 0-40-18-40-40 0-22 18-40 40-40 22 0 39 18 39 40 0 22-17 40-39 40z m139 267c-3 0-7 2-9 5-16 23-32 39-52 55-3 3-7 6-10 9-4 5-9 10-13 11-5 2-12 2-19 2-4 0-9-1-12 0-4 0-8 2-10 6-8 20-23 21-48 21-11 1-23 1-35 4-31 9-65 12-92 7-15-2-28-13-42-24-16-12-32-26-55-29-38-6-58-21-72-53-3-5-9-8-14-6-6 3-8 9-6 14 17 39 44 59 89 66 17 3 31 13 45 25 15 12 31 25 51 28 31 6 68 3 102-7 9-3 19-3 30-3 21-1 48-1 64-28 1 0 3 0 4 0 9 0 19 1 27-3 9-3 15-10 21-16 3-3 6-5 8-7 22-17 39-35 57-60 3-5 2-11-3-15-2-1-4-2-6-2z"/>
<glyph unicode="&#46;" d="M186 112c-6 0-11 4-11 10l0 306c0 6 5 11 11 11 6 0 11-5 11-11l0-306c0-6-5-10-11-10z m0 146l-156 0c-5 0-10 5-10 11 0 6 5 11 10 11l156 0c6 0 11-5 11-11 0-6-5-11-11-11z m-50 46l-125 0c-6 0-11 5-11 11l0 124c0 6 5 11 11 11l125 0c5 0 10-5 10-11l0-124c0-6-5-11-10-11z m-115 21l104 0 0 104-104 0z m212-196c-6 0-11 4-11 10l0 88c0 2 1 4 2 6l61 104c2 3 5 5 9 5l81 0c6 0 11-5 11-11l0-117 81 0c16-1 38-12 38-40l0-29c0-6-4-11-10-11-6 0-11 5-11 11l0 29c0 18-16 19-18 19l-91 0c-6 0-10 5-10 11l0 117-65 0-57-96 0-86c0-5-4-10-10-10z m196-21l-88 0c-6 0-10 4-10 10 0 6 4 11 10 11l88 0c6 0 11-5 11-11 0-6-5-10-11-10z m-144-46c-34 0-62 28-62 62 0 35 28 63 62 63 35 0 63-28 63-63 0-34-28-62-63-62z m0 104c-22 0-41-19-41-42 0-22 19-41 41-41 23 0 41 19 41 41 0 23-18 42-41 42z m180-104c-26 0-47 21-47 47 0 26 21 47 47 47 26 0 47-21 47-47 0-26-21-47-47-47z m0 72c-14 0-25-11-25-25 0-14 11-26 25-26 14 0 26 12 26 26 0 14-12 25-26 25z"/>
<glyph unicode="&#47;" d="M256 173c-49 0-90 41-90 90 0 49 41 90 90 90 49 0 90-40 90-90 0-49-41-90-90-90z m0 158c-38 0-68-30-68-68 0-38 30-68 68-68 38 0 68 30 68 68 0 38-30 68-68 68z m245 0l-490 0c-6 0-11 5-11 11 0 6 5 11 11 11l490 0c6 0 11-5 11-11 0-6-5-11-11-11z m0-158l-490 0c-6 0-11 5-11 11 0 6 5 11 11 11l490 0c6 0 11-5 11-11 0-6-5-11-11-11z m-419 3c-6 0-10 5-10 11l0 152c0 6 4 11 10 11 6 0 11-5 11-11l0-152c0-6-5-11-11-11z m348 0c-6 0-11 5-11 11l0 152c0 6 5 11 11 11 6 0 10-5 10-11l0-152c0-6-4-11-10-11z m-174 163c-6 0-11 5-11 11l0 63c0 6 5 11 11 11 6 0 11-5 11-11l0-63c0-6-5-11-11-11z m-114-251c-4 0-8 2-10 7-2 5 1 11 6 14 35 13 38 75 38 75 0 6 5 11 11 11 6-1 10-6 10-11 0-4-4-77-51-95-1-1-2-1-4-1z m228 0c-2 0-3 0-4 1-47 18-51 91-51 95 0 5 4 10 10 11 6 0 11-5 11-11 0 0 3-62 38-75 5-3 8-9 6-14-2-5-6-7-10-7z"/>
<glyph unicode="&#58;" d="M83 0l-7 0c-42 0-76 35-76 77l0 80c0 43 34 78 76 78l7 0c42 0 76-35 76-78l0-80c0-42-34-77-76-77z m-7 213c-30 0-55-25-55-56l0-80c0-31 25-56 55-56l7 0c30 0 55 25 55 56l0 80c0 31-25 56-55 56z m360-213l-7 0c-42 0-76 35-76 77l0 80c0 43 34 78 76 78l7 0c42 0 76-35 76-78l0-80c0-42-34-77-76-77z m-7 213c-30 0-55-25-55-56l0-80c0-31 25-56 55-56l7 0c30 0 55 25 55 56l0 80c0 31-25 56-55 56z m-170-85c-6 0-11 5-11 10 0 138-199 152-201 152-5 1-9 5-10 10 0 6 4 11 9 12 1 0 110 20 137 79 13 28 31 46 46 58-93 4-135 43-137 45-4 4-4 10 0 15 4 4 11 4 15 0 0 0 48-43 151-39 5 0 14 0 17-8 2-9-5-13-11-16-11-6-43-24-61-64-19-41-67-65-105-78 65-15 172-56 172-166 0-5-5-10-11-10z m2 0c-6 0-11 4-11 10 0 110 106 151 172 166-38 13-86 37-105 78-18 40-50 58-61 64-6 3-13 7-11 16 2 8 12 8 16 8 105-4 151 39 152 39 4 4 11 4 15 0 4-5 4-11 0-15-2-2-45-41-137-45 15-12 33-30 46-58 27-59 136-79 137-80 5 0 9-5 9-11-1-5-5-9-10-10-2 0-201-14-201-152 0-6-5-10-11-10z m33 204c0 19-15 34-34 34-19 0-34-15-34-34 0-19 15-34 34-34 19 0 34 15 34 34z"/>
<glyph unicode="&#59;" d="M66 33c-36 0-66 30-66 66 0 36 30 66 66 66 18 0 34-7 47-19 12-13 19-29 19-47 0-36-30-66-66-66z m0 111c-25 0-45-20-45-45 0-25 20-45 45-45 25 0 45 20 45 45 0 25-20 45-45 45z m336-111c-37 0-66 30-66 66 0 36 29 66 66 66 17 0 34-7 46-19 13-13 20-29 20-47 0-36-30-66-66-66z m0 111c-25 0-45-20-45-45 0-25 20-45 45-45 24 0 44 20 44 45 0 25-20 45-44 45z m-321 51c-1 0-3 0-4 1-5 2-8 8-6 13l95 249c2 5 8 8 13 6 6-2 9-8 7-14l-95-248c-2-5-6-7-10-7z m418-86c0 0-1 0-1 0-6 1-10 6-9 12 6 56-2 95-25 115-24 22-60 14-60 14-3-1-7 0-10 3-2 2-3 6-3 9 12 76 0 130-36 162-71 62-212 20-213 20-6-2-12 1-13 7-2 5 1 11 7 13 6 2 153 45 233-24 39-35 55-91 45-167 16 1 43-2 64-21 28-25 39-70 32-134-1-5-6-9-11-9z m-200 12l-133 0c-6 0-10 3-11 8-5 28-18 47-37 57-41 22-102-4-103-4-5-3-12 0-14 5-2 6 0 12 5 14 3 2 72 31 122 4 23-12 38-33 46-63l117 0c7 16 27 54 68 74 36 16 79 14 128-7 5-2 8-9 6-14-3-5-9-8-14-6-43 19-81 21-111 7-43-20-59-67-59-68-1-4-5-7-10-7z m-9 99c-10 0-20 1-31 3-5 1-9 6-9 12 1 6 7 10 13 9 25-4 58-5 71 13 15 20 2 58-4 70-3 6-1 12 4 15 6 2 12 0 15-5 1-3 28-58 3-92-12-16-33-25-62-25z m-169-24c-2 0-5 1-7 3-4 4-5 11-1 15l95 106c4 4 11 5 15 1 4-4 5-11 1-15l-95-106c-2-2-5-4-8-4z m126 75c-3 0-6 1-8 3l-59 58c-5 4-5 10-1 15 5 4 11 4 16 0l59-58c4-4 5-11 0-15-2-2-4-3-7-3z"/>
<glyph unicode="&#60;" d="M95 78l-84 0c-6 0-11 5-11 11l0 114c0 104 65 179 67 182 2 2 5 3 8 3l93 0c6 0 11-5 11-10l0-214c0-6-5-10-11-10-6 0-11 4-11 10l0 203-77 0c-12-16-59-80-59-164l0-103 74 0c6 0 10-5 10-11 0-6-4-11-10-11z m45-32c-29 0-53 24-53 53 0 30 24 54 53 54 30 0 54-24 54-54 0-29-24-53-54-53z m0 86c-17 0-32-15-32-33 0-17 15-32 32-32 18 0 33 15 33 32 0 18-15 33-33 33z m227-86c-30 0-54 24-54 53 0 30 24 54 54 54 29 0 53-24 53-54 0-29-24-53-53-53z m0 86c-18 0-33-15-33-33 0-17 15-32 33-32 17 0 32 15 32 32 0 18-15 33-32 33z m-14 0l-185 0c-6 0-11 4-11 10 0 6 5 11 11 11l185 0c6 0 11-5 11-11 0-6-5-10-11-10z m148-54l-92 0c-6 0-10 5-10 11 0 6 4 11 10 11l82 0 0 32-106 0c-6 0-11 4-11 10 0 6 5 11 11 11l116 0c6 0 11-5 11-11l0-53c0-6-5-11-11-11z m-177 0l-137 0c-6 0-11 5-11 11 0 6 5 11 11 11l137 0c6 0 10-5 10-11 0-6-4-11-10-11z m-156 170l-145 0c-6 0-11 5-11 11 0 5 5 10 11 10l145 0c6 0 11-5 11-10 0-6-5-11-11-11z m333-60l-281 0c-6 0-10 5-10 10l0 221c0 12-16 22-24 26l-78 0c-6 0-11 4-11 10 0 6 5 11 11 11l80 0c2 0 3 0 4-1 4-2 39-17 39-46l0-1 270 0c6 0 11-5 11-11l0-209c0-5-5-10-11-10z m-270 21l260 0 0 187-260 0z"/>
<glyph unicode="&#61;" d="M418 192c-6 0-11 5-11 11l0 32c0 6 5 11 11 11 6 0 10-5 10-11l0-32c0-6-4-11-10-11z m0-134c-6 0-11 4-11 10l0 32c0 6 5 11 11 11 6 0 10-5 10-11l0-32c0-6-4-10-10-10z m83 83l-32 0c-6 0-10 5-10 11 0 6 4 10 10 10l32 0c6 0 11-4 11-10 0-6-5-11-11-11z m-135 0l-32 0c-6 0-10 5-10 11 0 6 4 10 10 10l32 0c6 0 11-4 11-10 0-6-5-11-11-11z m88 36c-3 0-5 1-7 4-5 4-5 10 0 15l22 22c4 5 11 5 15 0 5-4 5-11 0-15l-22-22c-2-3-5-4-8-4z m-95-95c-3 0-6 1-8 3-4 4-4 11 0 15l23 23c4 4 11 4 15 0 4-4 4-11 0-15l-23-23c-2-2-5-3-7-3z m118 0c-3 0-6 1-8 3l-22 23c-5 4-5 11 0 15 4 4 11 4 15 0l22-23c5-4 5-11 0-15-2-2-4-3-7-3z m-96 95c-2 0-5 1-7 4l-23 22c-4 4-4 11 0 15 4 5 11 5 15 0l23-22c4-5 4-11 0-15-2-3-5-4-8-4z m37-83c-32 0-58 26-58 58 0 32 26 58 58 58 32 0 58-26 58-58 0-32-26-58-58-58z m0 94c-20 0-37-16-37-36 0-20 17-37 37-37 20 0 36 17 36 37 0 20-16 36-36 36z m-324 4c-6 0-10 5-10 11l0 32c0 6 4 11 10 11 6 0 11-5 11-11l0-32c0-6-5-11-11-11z m0-134c-6 0-10 4-10 10l0 32c0 6 4 11 10 11 6 0 11-5 11-11l0-32c0-6-5-10-11-10z m84 83l-32 0c-6 0-11 5-11 11 0 6 5 10 11 10l32 0c6 0 10-4 10-10 0-6-4-11-10-11z m-135 0l-32 0c-6 0-11 5-11 11 0 6 5 10 11 10l32 0c6 0 10-4 10-10 0-6-4-11-10-11z m88 36c-3 0-6 1-8 4-4 4-4 10 0 15l23 22c4 5 11 5 15 0 4-4 4-11 0-15l-23-22c-2-3-5-4-7-4z m-96-95c-3 0-5 1-7 3-5 4-5 11 0 15l22 23c4 4 11 4 15 0 5-4 5-11 0-15l-22-23c-2-2-5-3-8-3z m118 0c-2 0-5 1-7 3l-23 23c-4 4-4 11 0 15 4 4 11 4 15 0l23-23c4-4 4-11 0-15-2-2-5-3-8-3z m-95 95c-3 0-6 1-8 4l-22 22c-5 4-5 11 0 15 4 5 11 5 15 0l22-22c5-5 5-11 0-15-2-3-4-4-7-4z m36-86c-34 0-61 27-61 61 0 33 27 61 61 61 34 0 61-28 61-61 0-34-27-61-61-61z m0 101c-22 0-40-18-40-40 0-22 18-40 40-40 22 0 40 18 40 40 0 22-18 40-40 40z m197-35l-53 0c-5 0-9 3-10 8-27 89-117 99-155 99-11 0-18-1-18-1-5 0-10 3-12 8-1 5 1 10 6 13l47 20 7 27c1 4 4 6 7 8l82 27c4 2 8 1 11-1 2-3 4-6 3-10-1-14 1-26 7-34 7-9 18-11 20-12l162 0c6 0 10-4 11-9 1-6-3-11-8-12-94-20-96-116-96-120 0-6-5-11-11-11z m-45 21l36 0c2 23 13 78 61 110l-111 0c0 0 0 0-1 0-1 0-21 3-35 20-7 9-11 20-11 33l-63-21-7-26c0-4-3-6-6-7l-6-3c47-6 115-28 143-106z m-100 168c-6 0-11 4-11 9-2 28 10 85 77 99 6 1 11-2 13-8 1-6-3-11-8-13-65-14-61-73-61-76 1-6-4-11-10-11 0 0 0 0 0 0z m355-81c-2 0-4 1-6 2-36 28-88 21-89 21-6-1-11 3-12 9-1 6 3 11 9 12 3 1 62 9 105-25 5-3 5-10 2-15-2-2-5-4-9-4z"/>
<glyph unicode="&#62;" d="M210 137c-1 0-1 0-2 0l-118 17c-6 1-10 6-9 12 1 6 6 10 12 9l118-17c6-1 10-6 9-12-1-5-5-9-10-9z m141-14c-28 0-51 1-52 1 0 0 0 0-1 0l-26 4c-6 1-10 6-9 12 1 6 6 10 12 9l26-4c6 0 54-1 91 0 40 2 80 6 80 6 1 0 2 0 3 0 0 0 0 0 0 0 0 0 7-1 11 3 5 5 6 16 3 30-9 51-42 177-43 179 0 1 0 2 0 3 0 0 0 0 0 0 0 0-3 19-56 26-56 8-62 8-100 3-7-1-14-2-22-3-56-6-225-34-244-37-1-2-3-6-3-17l0-152 23-4c6 0 10-6 9-12-1-6-6-10-12-9l-32 5c-5 1-9 5-9 10l0 162c0 16 3 27 9 33 4 4 8 5 10 5 9 1 188 31 246 37 9 1 16 2 22 3 39 5 47 6 106-3 66-9 74-38 74-46 4-14 34-130 43-179 4-22 1-38-8-49-11-10-24-10-29-9-6-1-43-5-80-6-13 0-28-1-42-1z m72 101c-20 0-39 2-52 4l-3 0c-28 3-36 31-36 46-2 10-17 96-20 127-1 6 4 11 9 12 6 0 12-4 12-10 4-31 20-125 20-126 0 0 0-1 0-2 0 0 1-24 17-26l3 0c26-3 74-8 103 5 5 3 12 1 14-4 3-6 1-12-5-15-18-8-40-11-62-11z m-145 46c0 0 0 0 0 0l-228 0c-5 0-10 4-10 10l0 45c0 5 4 10 9 11l221 22c3 0 6-1 8-2 2-2 4-5 4-8l6-65c0-1 1-2 1-3 0-6-5-10-11-10z m-217 21l205 0-4 45-201-21z m6-161c-18 0-32 20-32 45 0 26 14 46 32 46 18 0 32-20 32-46 0-25-14-45-32-45z m0 70c-4 0-11-10-11-25 0-15 7-24 11-24 4 0 11 9 11 24 0 15-7 25-11 25z m175-108c-21 0-37 24-37 54 0 30 16 54 37 54 21 0 37-24 37-54 0-30-16-54-37-54z m0 86c-7 0-16-12-16-32 0-20 9-33 16-33 6 0 16 13 16 33 0 20-10 32-16 32z m152-10l-33 0c-6 0-10 4-10 10 0 6 4 11 10 11l33 0c6 0 11-5 11-11 0-6-5-10-11-10z m69 10c-4 0-8 3-10 7-2 6 1 12 7 14l17 6c6 2 12-1 14-6 2-6-1-12-7-14l-17-6c-1-1-2-1-4-1z"/>
<glyph unicode="&#63;" d="M440 81c-40 0-72 32-72 72 0 40 32 72 72 72 40 0 72-32 72-72 0-40-32-72-72-72z m0 123c-28 0-51-23-51-51 0-28 23-50 51-50 28 0 51 22 51 50 0 28-23 51-51 51z m-368-123c-40 0-72 33-72 72 0 40 32 72 72 72 40 0 72-32 72-72 0-40-32-72-72-72z m0 123c-28 0-51-23-51-51 0-28 23-50 51-50 28 0 51 22 51 50 0 28-23 51-51 51z m241-88l-117 0c-6 0-11 4-11 10-8 137-175 180-177 180-5 1-8 5-8 10 0 5 3 9 7 11 4 1 87 27 130 2 35-20 110-6 126 13 23 27 96 35 137 8 5-4 6-10 3-15-3-5-10-6-15-3-33 22-94 14-108-3-23-28-111-42-154-18-18 10-51 8-77 4 52-22 145-74 156-178l99 0c6 25 25 97 77 134 25 18 53 26 84 24-12 31-47 99-118 115-6 1-9 7-8 12 1 6 7 10 13 9 105-24 138-141 139-146 1-4 0-8-2-10-3-3-7-4-10-4-33 6-61 0-85-17-56-40-70-128-70-129-1-5-6-9-11-9z"/>
<glyph unicode="&#64;" d="M110 75c-1 0-2 0-4 1l-99 37c-6 2-8 8-6 14 2 5 8 8 13 6l89-33 111 377c1 6 7 9 13 8 5-2 9-8 7-14l-114-388c0-3-2-6-5-7-2-1-3-1-5-1z m93 0l-34 0c-6 0-10 5-10 11 0 5 4 10 10 10l34 0c6 0 11-5 11-10 0-6-5-11-11-11z m186 0l-65 0c-6 0-11 5-11 11 0 5 5 10 11 10l65 0c6 0 11-5 11-10 0-6-5-11-11-11z m-220 0c-1 0-1 0-2 0-6 2-9 8-8 13l66 254c8 25 38 74 99 74l101 0c6 0 11-5 11-11l0-172 65 0c6 0 11-5 11-11l0-136c0-6-5-11-11-11l-34 0c-6 0-10 5-10 11 0 5 4 10 10 10l24 0 0 115-66 0c-6 0-11 5-11 11l0 172-90 0c-60 0-78-56-79-58l-65-253c-2-5-6-8-11-8z m255 100l-229 0c-6 0-10 5-10 10 0 6 4 11 10 11l218 0 0 26c0 6 5 11 11 11 6 0 11-5 11-11l0-37c0-5-5-10-11-10z m-161-148c-37 0-67 30-67 67 0 37 30 67 67 67 37 0 67-30 67-67 0-8-1-15-3-23-10-26-35-44-64-44z m0 113c-25 0-45-21-45-46 0-25 20-46 45-46 20 0 37 13 43 31 2 5 3 10 3 15 0 25-20 46-46 46z m165-113c-27 0-48 22-48 48 0 27 21 49 48 49 27 0 48-22 48-49 0-26-21-48-48-48z m0 75c-15 0-27-12-27-27 0-15 12-27 27-27 15 0 27 12 27 27 0 15-12 27-27 27z"/>
<glyph unicode="&#91;" d="M77 58c-42 0-77 35-77 77 0 43 35 78 77 78 43 0 78-35 78-78 0-42-35-77-78-77z m0 133c-31 0-56-25-56-56 0-31 25-56 56-56 31 0 56 25 56 56 0 31-25 56-56 56z m179-133c-43 0-77 35-77 77 0 43 34 78 77 78 43 0 77-35 77-78 0-42-34-77-77-77z m0 133c-31 0-56-25-56-56 0-31 25-56 56-56 31 0 56 25 56 56 0 31-25 56-56 56z m147-133c-25 0-45 20-45 45 0 25 20 46 45 46 25 0 46-21 46-46 0-25-21-45-46-45z m0 70c-13 0-24-11-24-25 0-13 11-24 24-24 14 0 25 11 25 24 0 14-11 25-25 25z m-373 63c-6 0-10 5-10 11l0 233 6 3c4 1 90 36 174 0l6-3 0-209c0-6-4-10-10-10-6 0-11 4-11 10l0 195c-61 24-124 6-144-1l0-218c0-6-5-11-11-11z m471-88c-3 0-6 1-8 4l-91 113 3 7c19 40 1 67-6 75l-199 0c-6 0-11 5-11 10 0 6 5 11 11 11l207 0 3-2c15-13 36-50 17-97l83-104c3-5 3-11-2-15-2-2-4-2-7-2z m-245 199c-6 0-11 5-11 10l0 67c0 6 5 11 11 11 6 0 11-5 11-11l0-67c0-5-5-10-11-10z m112 10c-5 0-10 5-10 11l0 100c0 6 5 11 10 11 6 0 11-5 11-11l0-100c0-6-5-11-11-11z m-185-195l-32 0c-6 0-10 5-10 11 0 6 4 10 10 10l32 0c6 0 11-4 11-10 0-6-5-11-11-11z m185-14c-1 0-2 0-3 0l-38 15c-5 2-8 8-6 14 2 5 8 8 14 6l37-15c6-2 9-8 6-14-1-4-5-6-10-6z m133-10l-51 0c-6 0-11 4-11 10 0 6 5 11 11 11l51 0c6 0 11-5 11-11 0-6-5-10-11-10z"/>
<glyph unicode="&#93;" d="M223 44c-42 0-77 35-77 77 0 43 35 77 77 77 43 0 77-34 77-77 0-42-34-77-77-77z m0 133c-31 0-56-25-56-56 0-31 25-56 56-56 31 0 56 25 56 56 0 31-25 56-56 56z m278-47l-211 0c-6 0-11 4-11 10 0 6 5 11 11 11l211 0c6 0 11-5 11-11 0-6-5-10-11-10z m-76 0c-6 0-11 4-11 10l0 163-145 144-193 0c-49 0-54-44-55-49l0-203c0-36 39-43 44-44l92 0c6 0 10-5 10-11 0-6-4-10-10-10l-92 0c-1 0-1 0-2 0-22 2-63 20-63 65l0 204c2 25 21 69 76 69l198 0c3 0 5-1 7-3l152-150c2-2 3-5 3-8l0-167c0-6-5-10-11-10z m-281 152l-71 0c-6 0-11 5-11 11l0 109c0 6 5 11 11 11l71 0c6 0 11-5 11-11l0-109c0-6-5-11-11-11z m-61 22l50 0 0 87-50 0z m263-22c0 0 0 0-1 0l-144 0c-6 0-11 5-11 11l0 109c0 6 5 11 11 11l40 0c3 0 5-1 7-4l104-107c3-2 4-5 4-9 0-6-4-11-10-11z m-135 22l109 0-84 87-25 0z"/>
<glyph unicode="&#94;" d="M472 131l-429 0c-6 0-11 5-11 11 0 5 5 10 11 10l429 0c6 0 11-5 11-10 0-6-5-11-11-11z m-363-128c-30 0-54 24-54 54 0 30 24 55 54 55 30 0 54-25 54-55 0-30-24-54-54-54z m0 87c-18 0-33-14-33-33 0-18 15-33 33-33 18 0 33 15 33 33 0 19-15 33-33 33z m298-87c-30 0-54 24-54 54 0 30 24 55 54 55 30 0 55-25 55-55 0-30-25-54-55-54z m0 87c-18 0-33-14-33-33 0-18 15-33 33-33 19 0 33 15 33 33 0 19-14 33-33 33z m55 89l-412 0c-3 0-6 1-8 4-56 71-56 186 0 257 2 3 5 4 8 4l412 0c3 0 6-1 8-4 56-71 56-186 0-257-2-3-5-4-8-4z m-406 21l400 0c46 63 46 160 0 223l-400 0c-46-63-46-160 0-223z m152 288l-69 0c-6 0-11 4-11 10 0 6 5 11 11 11l69 0c6 0 10-5 10-11 0-6-4-10-10-10z m139-152l-69 0c-6 0-10 5-10 11 0 6 4 11 10 11l69 0c6 0 11-5 11-11 0-6-5-11-11-11z m0-81l-69 0c-6 0-10 5-10 11 0 5 4 10 10 10l69 0c6 0 11-5 11-10 0-6-5-11-11-11z m-174 181c-5 0-10 5-10 11l0 51c0 6 5 11 10 11 6 0 11-5 11-11l0-51c0-6-5-11-11-11z m105-257c-6 0-10 4-10 10l0 245c0 6 4 10 10 10 6 0 11-4 11-10l0-245c0-6-5-10-11-10z m75 0c-6 0-11 4-11 10l0 245c0 6 5 10 11 10 6 0 11-4 11-10l0-245c0-6-5-10-11-10z"/>
<glyph unicode="&#95;" d="M256 71c-87 0-158 70-158 157 0 39 15 77 41 106 30 33 72 52 117 52 87 0 158-71 158-158 0-87-71-157-158-157z m0 294c-39 0-75-17-101-46-23-25-35-57-35-91 0-75 61-136 136-136 75 0 136 61 136 136 0 75-61 137-136 137z m0-204c-37 0-67 30-67 67 0 17 6 33 17 45 13 14 31 23 50 23 37 0 67-31 67-68 0-37-30-67-67-67z m0 113c-13 0-25-5-34-15-8-8-12-19-12-31 0-25 21-46 46-46 25 0 46 21 46 46 0 26-21 46-46 46z m17-274l-186 0c-4 0-8 2-10 6-1 3-1 7 1 11l71 106c4 4 10 6 15 2 5-3 6-9 3-14l-60-90 166 0c6 0 11-4 11-10 0-6-5-11-11-11z m152 0l-186 0c-6 0-11 5-11 11 0 6 5 10 11 10l166 0-60 90c-3 5-2 11 3 14 5 4 11 2 15-2l71-106c2-4 2-8 1-11-2-4-6-6-10-6z m-284 316c-6 0-10 5-10 11l0 174c0 6 4 11 10 11 6 0 11-5 11-11l0-174c0-6-5-11-11-11z m230 0c-6 0-11 5-11 11l0 174c0 6 5 11 11 11 6 0 10-5 10-11l0-174c0-6-4-11-10-11z m62 175l-354 0c-6 0-11 4-11 10 0 6 5 11 11 11l354 0c6 0 11-5 11-11 0-6-5-10-11-10z m-177-126c-6 0-11 4-11 10l0 57c0 6 5 11 11 11 6 0 11-5 11-11l0-57c0-6-5-10-11-10z m-57-365c-1 0-2 0-3 1-6 1-9 7-7 13l20 62c2 6 8 9 14 7 5-2 8-8 7-13l-21-63c-1-4-5-7-10-7z m114 0c-5 0-9 3-10 7l-21 63c-1 5 2 11 7 13 6 2 12-1 14-7l20-62c2-6-1-12-7-14-1 0-2 0-3 0z"/>
<glyph unicode="&#96;" d="M127 71c-1 0-2 0-2 0-5 1-8 5-9 10l-10 142-101 69c-4 3-6 7-5 11 1 4 4 7 8 8l491 130c4 1 8-1 11-5 3-3 3-8 0-12l-232-341c-2-3-4-5-8-5-3 0-6 1-8 3l-78 81-48-86c-2-3-5-5-9-5z m55 119c2 0 5-1 7-3l79-81 209 307-441-116 86-60c3-1 4-4 4-8l9-111 37 67c2 3 5 5 8 5 1 0 1 0 2 0z"/>
<glyph unicode="&#123;" d="M429 66c-46 0-83 37-83 83 0 46 37 83 83 83 46 0 83-37 83-83 0-46-37-83-83-83z m0 144c-34 0-62-27-62-61 0-34 28-62 62-62 34 0 62 28 62 62 0 34-28 61-62 61z m-298-144c-46 0-83 37-83 83 0 46 37 83 83 83 45 0 83-37 83-83 0-46-38-83-83-83z m0 144c-34 0-62-27-62-61 0-34 28-62 62-62 34 0 61 28 61 62 0 34-27 61-61 61z m298-72c-4 0-9 3-10 7l-73 195c0 2 0 3 0 4 1 28-6 49-19 63-17 18-41 18-42 18-6 0-10 5-10 11 0 6 4 10 10 10 2 0 33 0 57-24 17-18 26-44 25-76l72-194c2-5-1-11-6-13-2-1-3-1-4-1z m-194 175l-90 0c-6 0-11 5-11 11 0 6 5 10 11 10l90 0c6 0 10-4 10-10 0-6-4-11-10-11z m19-194c-1 0-1 0-2 0-4 1-7 3-8 7l-64 194c-2 6 1 12 6 14 6 2 12-1 14-7l57-174 106 155c4 4 10 6 15 2 5-3 6-10 3-14l-118-172c-2-3-6-5-9-5z m-243 79c-2 0-4 1-6 2-5 3-6 10-3 15 1 2 39 56 129 56l202 0c6 0 11-4 11-10 0-6-5-11-11-11l-202 0c-78 0-110-45-112-47-2-3-5-5-8-5z m120-55c-6 0-11 5-11 11l0 98c0 6 5 11 11 11 6 0 10-5 10-11l0-98c0-6-4-11-10-11z m225 191c-3 0-7 1-9 5-22 40-65 25-66 25-6-2-12 0-14 6-2 5 1 12 6 14 21 7 68 10 93-35 3-5 1-11-4-14-2-1-4-1-6-1z"/>
<glyph unicode="&#124;" d="M153 9c-84 0-153 69-153 154 0 84 69 153 153 153 85 0 153-69 153-153 0-85-68-154-153-154z m0 286c-72 0-132-60-132-132 0-73 60-132 132-132 73 0 132 59 132 132 0 72-59 132-132 132z m215-286c-36 0-65 30-65 65 0 36 29 65 65 65 35 0 65-29 65-65 0-35-30-65-65-65z m0 109c-24 0-44-20-44-44 0-24 20-43 44-43 24 0 43 19 43 43 0 24-19 44-43 44z m0-47c-6 0-11 5-11 11l0 306-217 0c-6 0-11 4-11 10 0 6 5 11 11 11l228 0c6 0 10-5 10-11l0-316c0-6-4-11-10-11z m99 47c-3 0-6 1-8 3l-92 103c-4 4-4 11 1 15 4 4 11 3 15-1l83-92 26 40c4 5 10 6 15 3 5-4 6-10 3-15l-34-51c-2-3-5-5-8-5 0 0-1 0-1 0z m-314 34c-5 0-10 4-10 10l-14 142-28 177-59 0c-6 0-11 5-11 11 0 6 5 11 11 11l68 0c5 0 10-4 10-9l30-188 14-142c0-6-4-11-10-12 0 0 0 0-1 0z"/>
<glyph unicode="&#125;" d="M367 149l-214 0c-6 0-11 5-11 10 0 6 5 11 11 11l208 0c24 18 63 45 63 56 3 124-124 211-144 224l-259 0 0-276c0-6-4-11-10-11-6 0-11 5-11 11l0 297 286 0 3-1c7-4 159-99 156-244 0-21-28-42-75-75z m-277-108c-46 0-83 37-83 83 0 46 37 83 83 83 46 0 83-37 83-83 0-46-37-83-83-83z m0 145c-34 0-62-28-62-62 0-34 28-62 62-62 34 0 62 28 62 62 0 34-28 62-62 62z m362-135c-32 0-59 27-59 60 0 32 27 59 59 59 33 0 60-27 60-59 0-33-27-60-60-60z m0 98c-21 0-38-17-38-38 0-21 17-39 38-39 22 0 39 18 39 39 0 21-17 38-39 38z m-263 14c-6 0-11 4-11 10l0 270c0 6 5 10 11 10 6 0 11-4 11-10l0-270c0-6-5-10-11-10z"/>
<glyph unicode="&#126;" d="M87 52c-48 0-87 39-87 87 0 49 39 88 87 88 48 0 88-39 88-88 0-48-40-87-88-87z m0 153c-36 0-66-29-66-66 0-36 30-66 66-66 37 0 66 30 66 66 0 37-29 66-66 66z m338-153c-48 0-88 39-88 87 0 49 40 88 88 88 48 0 87-39 87-88 0-48-39-87-87-87z m0 153c-37 0-66-29-66-66 0-36 29-66 66-66 36 0 66 30 66 66 0 37-30 66-66 66z m-123-43l-89 0-2 7c-52 136-182 90-188 88-5-2-11 1-14 6-2 6 1 12 7 14 1 0 151 54 212-93l66 0c7 20 29 73 78 95 36 16 78 13 124-11 5-2 8-9 5-14-3-5-9-7-14-5-41 20-76 24-106 11-50-23-68-89-68-90l-2-8z m-177 106c-6 0-10 4-10 10l0 156c0 6 4 11 10 11 6 0 11-5 11-11l0-156c0-6-5-10-11-10z m289 0c-6 0-11 4-11 10l0 156c0 6 5 11 11 11 6 0 10-5 10-11l0-156c0-6-4-10-10-10z m36 170l-372 0c-5 0-10 5-10 11 0 6 5 11 10 11l372 0c6 0 10-5 10-11 0-6-4-11-10-11z m-286-198c-3 0-6 1-8 3-4 5-4 11 0 15l72 73c4 4 11 4 15 0 4-4 4-11 0-15l-72-73c-2-2-4-3-7-3z m100 43c-3 0-6 1-8 3l-64 69c-4 4-4 11 0 15 5 4 11 4 15-1l65-68c4-4 4-11-1-15-2-2-4-3-7-3z"/>
<glyph unicode="&#92;" d="M435 69c-42 0-77 35-77 77 0 42 35 77 77 77 43 0 77-35 77-77 0-42-34-77-77-77z m0 133c-31 0-55-25-55-56 0-31 24-56 55-56 31 0 56 25 56 56 0 31-25 56-56 56z m-321-133c-43 0-77 35-77 77 0 42 34 77 77 77 42 0 77-35 77-77 0-42-35-77-77-77z m0 133c-31 0-56-25-56-56 0-31 25-56 56-56 30 0 55 25 55 56 0 31-25 56-55 56z m120-67c-1 0-1 0-2 0-4 1-8 4-9 8-12 47-41 102-109 102-69 0-94-45-94-46-3-5-9-7-14-4-6 3-8 9-5 14 1 3 31 57 113 57 57 0 100-33 123-94 26 40 90 129 170 150 5 2 11-1 13-7 1-6-2-12-8-13-93-26-168-160-169-161-2-4-6-6-9-6z m201 0c-4 0-8 3-10 7-1 2-75 182-98 215-6 8-12 12-18 13-14 2-27-8-27-8-4-3-11-3-15 2-3 5-2 11 2 15 1 1 20 16 42 12 13-1 24-9 33-21 25-36 98-212 101-220 2-5 0-12-6-14-1 0-3-1-4-1z m-292 147c-40 0-72 7-74 8-5 1-9 7-8 13 2 5 7 9 13 8 1 0 69-16 132 0 6 1 12-2 13-8 2-6-2-12-8-13-23-6-46-8-68-8z m206 48c-5 0-9 3-10 7-17 62-35 78-43 83-5 2-8 1-8 1-5-2-11 0-14 5-3 5-1 12 4 14 5 3 15 4 25 0 22-9 41-42 56-97 2-6-2-11-7-13-1 0-2 0-3 0z m-326-67c-6 0-11 5-11 11l0 66c0 6 5 11 11 11 6 0 11-5 11-11l0-66c0-6-5-11-11-11z"/>
<glyph unicode="&#57344;" d="M251 94c-29 0-52 28-52 63 0 35 23 63 52 63 29 0 52-28 52-63 0-35-23-63-52-63z m0 105c-16 0-30-19-30-42 0-23 13-42 30-42 17 0 31 19 31 42 0 23-14 42-31 42z m216-67c-24 0-45 24-45 54 0 30 21 55 45 55 25 0 45-25 45-55 0-30-20-54-45-54z m0 87c-13 0-23-15-23-33 0-18 10-33 23-33 13 0 24 15 24 33 0 18-11 33-24 33z m-284-114c-29 0-52 29-52 64 0 35 23 63 52 63 6 0 10-4 10-10 0-6-4-11-10-11-17 0-31-19-31-42 0-23 14-42 31-42 6 0 10-5 10-11 0-6-4-11-10-11z m-69 9c-28 0-51 28-51 63 0 35 23 64 51 64 6 0 11-5 11-11 0-6-5-11-11-11-16 0-30-19-30-42 0-23 14-42 30-42 6 0 11-5 11-11 0-6-5-10-11-10z m-62 9c-29 0-52 28-52 63 0 35 23 64 52 64 6 0 10-5 10-11 0-6-4-11-10-11-17 0-31-19-31-42 0-23 14-42 31-42 6 0 10-5 10-11 0-5-4-10-10-10z m441 88c-6 0-10 4-11 10-2 49-19 58-19 58-4 1-6 4-6 8l-11 92-70 18-104-10-31-59c-2-4-6-6-11-5-126 12-163-72-163-73-2-5-8-8-14-6-5 3-8 9-6 14 1 1 42 97 178 86l30 58c2 4 5 6 9 6l112 10c1 1 3 0 4 0l79-20c4-2 7-5 8-10l10-93c9-7 24-25 27-73 0-6-5-11-11-11 0 0 0 0 0 0z m-196-79c-6 0-11 4-11 9-1 6 4 11 9 12l141 15c6 0 11-4 12-10 0-6-4-11-10-12l-140-14c-1 0-1 0-1 0z m-70 91c0 0-1 0-1 0-6 1-10 6-10 12 8 61 90 83 117 89 3 26 22 76 24 82 2 5 8 8 14 6 5-2 8-8 6-14-6-16-22-61-23-79 0-1 0-2 0-3 0 0 0-1 0-2 0-2 0-3 0-5 0-1 0-1 0-1l0 0c-1-7-3-12-11-11-5 0-8 2-9 5-26-6-91-25-96-70-1-5-6-9-11-9z"/>
<glyph unicode="&#57345;" d="M309 0c-1 0-2 0-4 1-5 2-8 8-6 13 39 109 48 205 48 206 1 5 4 8 8 10 4 1 9-1 12-4 6-8 19-6 38-2 10 2 20 4 30 4 20 0 33-8 41-13 3-1 7-4 9-4 3 4 7 20 5 26-4 16-20 33-39 53-12 13-25 27-37 42-14 18-28 39-39 55-2-12-7-23-13-34-50-82-212-121-219-123-6-1-12 2-13 8-1 6 2 12 8 13 2 0 160 39 205 113 12 19 15 37 9 57-1 6 2 11 6 13 5 2 11 0 14-4 0-1 30-47 59-85 11-15 24-28 35-40 21-22 40-41 45-63 3-12-3-43-16-50-12-6-21 0-29 5-8 4-17 10-31 10 0 0 0 0 0 0-8 0-17-2-25-4-14-3-30-6-43-2-5-33-18-109-48-194-2-4-6-7-10-7z m-253 50c-4 0-8 3-10 6-3 6 0 12 5 15 67 33 102 64 99 88-5 35-89 61-140 70-5 0-8 4-9 9-15 102 129 170 135 173 5 2 10 0 13-4 49-71 112-47 112-47 6 2 12-1 14-6 2-6-1-12-6-14-1 0-74-28-132 47-27-14-119-68-116-139 33-6 142-31 150-86 5-35-31-71-111-111-1 0-3-1-4-1z m179 413c0 21-17 38-38 38-21 0-38-17-38-38 0-22 17-39 38-39 21 0 38 17 38 39z"/>
<glyph unicode="&#57346;" d="M497 102l-21 0c-6 0-11 5-11 10 0 6 5 11 11 11l13 0c10 65-20 152-29 177l-75 0 0-151c0-6-4-10-10-10l-364 0c-6 0-11 4-11 10 0 6 5 11 11 11l353 0 0 151c0 6 5 10 11 10l92 0c5 0 9-2 10-6 2-5 49-122 31-205-1-5-6-8-11-8z m-11 114l-103 0c-6 0-11 4-11 10 0 6 5 11 11 11l103 0c6 0 10-5 10-11 0-6-4-10-10-10z m-47-169c-28 0-50 22-50 50 0 27 22 49 50 49 27 0 49-22 49-49 0-28-22-50-49-50z m0 78c-16 0-28-13-28-28 0-16 12-29 28-29 15 0 28 13 28 29 0 15-13 28-28 28z m-334-78c-27 0-50 22-50 50 0 27 23 49 50 49 27 0 50-22 50-49 0-28-23-50-50-50z m0 78c-16 0-28-13-28-28 0-16 12-29 28-29 16 0 28 13 28 29 0 15-12 28-28 28z m68 57l-92 0c-31 0-56 25-56 56 0 31 25 56 56 56l68 0 144 153c10 12 25 18 40 18l70 0c31 0 56-25 56-56 0-31-25-56-56-56l-45 0-144-154c-10-11-25-17-41-17z m-92 90c-19 0-35-15-35-34 0-20 16-35 35-35l92 0c10 0 19 4 26 11l146 157c2 2 5 3 8 3l50 0c19 0 35 16 35 35 0 19-16 35-35 35l-70 0c-9 0-18-4-25-11l-147-157c-2-2-5-4-8-4z"/>
<glyph unicode="&#57347;" d="M351 55c-90 0-162 72-162 161 0 90 73 162 162 162 89 0 161-72 161-162 0-89-72-161-161-161z m0 302c-78 0-141-63-141-141 0-77 63-140 141-140 77 0 140 63 140 140 0 78-63 141-140 141z m-270-302c-45 0-81 36-81 80 0 45 36 81 81 81 44 0 80-36 80-81 0-44-36-80-80-80z m0 140c-33 0-60-27-60-60 0-32 27-59 60-59 32 0 59 27 59 59 0 33-27 60-59 60z m0-70c-1 0-2 0-2 0-6 1-10 7-9 12 2 10 44 233 231 279 6 1 12-2 13-8 2-6-2-11-8-13-174-42-215-259-215-261-1-6-5-9-10-9z m80 126l-104 0c-6 0-11 5-11 11 0 6 5 11 11 11l104 0c6 0 11-5 11-11 0-6-5-11-11-11z m190-45c-5 0-10 3-11 8l-53 230c-2 6 2 11 8 13 5 1 11-3 13-8l53-230c1-6-2-12-8-13-1 0-2 0-2 0z m0 230l-103 0c-5 0-10 4-10 10 0 6 5 11 10 11l103 0c5 0 10-5 10-11 0-6-5-10-10-10z"/>
<glyph unicode="&#57348;" d="M157 0c-4 0-7 2-9 5l-56 87-87 56c-4 2-6 7-5 11l12 63c1 5 5 9 11 9l106-5c-17 37-60 129-97 166-2 2-3 5-3 8 0 2 1 5 3 7l44 45c3 3 8 4 12 2 1-1 76-35 171-35 91 0 170 30 235 90 4 4 11 4 15 0 4-4 4-11 0-15-161-174-56-403-55-406 2-4 1-9-2-12l-45-44c-4-4-11-4-15 0-37 37-129 80-166 97l5-106c0-6-4-10-9-11l-63-12c-1 0-1 0-2 0z m-135 162l83-53c2-1 3-2 4-4l53-83 47 9-5 114c0 4 1 7 4 9 3 2 7 3 10 1 6-2 127-53 181-101l32 32c-14 37-75 207 17 362-56-33-119-50-189-50-84 0-151 24-173 33l-32-32c48-54 99-175 101-181 2-3 1-7-1-10-2-3-5-5-9-4l-114 5z m155 98c-3 0-6 1-8 3-4 4-4 11 0 15 76 80 90 134 90 135 1 5 7 9 13 8 5-2 9-7 7-13 0-2-14-60-95-144-2-2-4-4-7-4z m94-94c-3 0-6 1-8 3-4 5-4 11 1 15 84 81 142 95 144 95 6 2 11-2 13-8 1-5-3-11-8-12-1 0-55-14-135-90-2-2-4-3-7-3z"/>
<glyph unicode="&#57349;" d="M179 0c-22 0-63 34-82 50-24-10-39-10-48-1-12 11-6 32 1 48-27 30-63 77-45 95 2 3 7 6 13 6 18 0 48-22 68-39 28 40 65 86 103 125-71 89-110 189-83 216 8 8 17 12 28 12 32 0 69-41 120-98 13-14 26-29 39-44 38 22 68 24 85 8 12-13 20-37-8-85 15-13 30-26 44-39 56-50 97-87 98-119 0-11-4-21-12-29-6-6-15-9-27-9l0 0c-36 0-111 29-189 92-39-38-84-75-125-103 35-41 46-68 34-81-3-2-7-5-14-5z m-78 75l5-5c35-31 59-45 70-48-3 9-14 29-40 59l-8 10 10 6c43 29 95 72 138 114l6 7 8-6c73-61 149-94 183-94l0 0c7 0 11 2 12 3 4 4 6 8 6 13-1 23-43 61-92 104-16 15-32 30-49 46l-7 6 5 7c19 31 25 55 14 65-3 4-8 5-14 5-9 0-25-3-51-19l-7-5-6 7c-16 17-31 33-46 50-43 48-81 91-104 91-5 0-9-2-13-6-12-12 10-98 91-195l6-8-7-6c-42-43-85-95-114-138l-6-10-10 8c-29 25-50 37-59 40 3-10 16-34 49-70l4-5-3-6c-11-24-8-31-8-31 0 0 1-1 3-1 3 0 11 2 28 9z m315 267c0 0-73 73-74 74-2 2-3 5-3 8 0 3 1 5 3 7 7 8 7 8 52-37l37-37z m-46 17c-3 0-5 1-8 3-4 5-4 11 0 16l28 27c4 4 11 4 15 0 4-4 4-11 0-15l-27-28c-3-2-5-3-8-3z"/>
</font>
</defs>
</svg>
